<?xml version="1.0" encoding="UTF-8" standalone="no"?>
<!-- This file was generated by dvisvgm 2.1.3 -->

<svg
   xmlns:dc="http://purl.org/dc/elements/1.1/"
   xmlns:cc="http://creativecommons.org/ns#"
   xmlns:rdf="http://www.w3.org/1999/02/22-rdf-syntax-ns#"
   xmlns:svg="http://www.w3.org/2000/svg"
   xmlns="http://www.w3.org/2000/svg"
   xmlns:sodipodi="http://sodipodi.sourceforge.net/DTD/sodipodi-0.dtd"
   xmlns:inkscape="http://www.inkscape.org/namespaces/inkscape"
   height="203.99001pt"
   version="1.1"
   viewBox="-67.02 -67.02 562.77 203.99"
   width="562.77002pt"
   id="svg2"
   inkscape:version="0.91 r13725"
   sodipodi:docname="Synthesis_of_dl-serine.svg">
  <metadata
     id="metadata315">
    <rdf:RDF>
      <cc:Work
         rdf:about="">
        <dc:format>image/svg+xml</dc:format>
        <dc:type
           rdf:resource="http://purl.org/dc/dcmitype/StillImage" />
        <dc:title></dc:title>
      </cc:Work>
    </rdf:RDF>
  </metadata>
  <sodipodi:namedview
     pagecolor="#ffffff"
     bordercolor="#666666"
     borderopacity="1"
     objecttolerance="10"
     gridtolerance="10"
     guidetolerance="10"
     inkscape:pageopacity="0"
     inkscape:pageshadow="2"
     inkscape:window-width="1366"
     inkscape:window-height="715"
     id="namedview313"
     showgrid="false"
     borderlayer="true"
     inkscape:zoom="0.72027299"
     inkscape:cx="689.12699"
     inkscape:cy="36.27201"
     inkscape:window-x="-8"
     inkscape:window-y="-8"
     inkscape:window-maximized="1"
     inkscape:current-layer="svg2" />
  <defs
     id="defs4">
    <font
       horiz-adv-x="0"
       id="rm-lmss12"
       horiz-origin-x="0"
       horiz-origin-y="0"
       vert-origin-x="45"
       vert-origin-y="90"
       vert-adv-y="90">
      <font-face
         ascent="1154"
         descent="308"
         font-family="rm-lmss12"
         units-per-em="1000"
         id="font-face7" />
      <glyph
         d="m595 188c0 88 -87 159 -190 175c117 32 162 99 162 157c0 90 -102 174 -243 174h-231v-694h258c141 0 244 90 244 188zm-105 331c0 -70 -86 -128 -192 -128h-124v247h123c107 0 193 -53 193 -119zm26 -330c0 -70 -81 -133 -193 -133h-149v275h133c129 0 209 -72 209 -142z"
         glyph-name="B"
         horiz-adv-x="650"
         unicode="B"
         vert-adv-y="650"
         id="glyph9" />
      <glyph
         d="m595 0v694h-86v-303h-333v303h-86v-694h86v331h333v-331h86z"
         glyph-name="H"
         horiz-adv-x="686"
         unicode="H"
         vert-adv-y="686"
         id="glyph11" />
      <glyph
         d="m594 0v694h-77v-620h-1l-81 168l-221 452h-123v-694h77v620h1l81 -168l221 -452h123z"
         glyph-name="N"
         horiz-adv-x="686"
         unicode="N"
         vert-adv-y="686"
         id="glyph13" />
      <glyph
         d="m667 345c0 212 -144 370 -306 370c-166 0 -307 -161 -307 -370c0 -211 145 -366 306 -366c165 0 307 157 307 366zm-86 15c0 -196 -108 -318 -220 -318c-116 0 -221 125 -221 318c0 184 109 293 220 293c114 0 221 -112 221 -293z"
         glyph-name="O"
         horiz-adv-x="722"
         unicode="O"
         vert-adv-y="722"
         id="glyph15" />
      <glyph
         d="m318 387v67c-91 -1 -144 -54 -171 -93v88h-69v-449h74v219c0 101 76 167 166 168z"
         glyph-name="r"
         horiz-adv-x="333"
         unicode="r"
         vert-adv-y="333"
         id="glyph17" />
    </font>
    <font
       horiz-adv-x="0"
       id="ec-lmss8"
       horiz-origin-x="0"
       horiz-origin-y="0"
       vert-origin-x="45"
       vert-origin-y="90"
       vert-adv-y="90">
      <font-face
         ascent="1154"
         descent="314"
         font-family="ec-lmss8"
         units-per-em="1000"
         id="font-face20" />
      <glyph
         d="m477 0v77h-194c-12 0 -24 -1 -36 -1h-114l155 137c18 16 67 53 86 69c44 40 103 92 103 179c0 113 -84 216 -227 216c-106 0 -172 -57 -206 -159l47 -59c23 84 58 149 145 149c84 0 148 -59 148 -149c0 -83 -49 -130 -109 -187c-20 -20 -74 -65 -95 -85c-29 -26 -98 -93 -127 -118v-69h424z"
         glyph-name="two"
         horiz-adv-x="531"
         unicode="2"
         vert-adv-y="531"
         id="glyph22" />
      <glyph
         d="m486 182c0 82 -66 148 -145 171c76 39 115 106 115 171c0 85 -87 153 -194 153c-88 0 -161 -46 -203 -106l41 -58c41 80 113 102 161 102c59 0 103 -34 103 -91c0 -53 -36 -118 -112 -131c-5 -1 -9 -1 -75 -6v-66h78c95 0 130 -75 130 -138c0 -78 -48 -138 -126 -138c-71 0 -152 34 -202 98l-13 -65c58 -65 139 -99 217 -99c131 0 225 98 225 203z"
         glyph-name="three"
         horiz-adv-x="531"
         unicode="3"
         vert-adv-y="531"
         id="glyph24" />
    </font>
    <font
       horiz-adv-x="0"
       id="rm-lmss8"
       horiz-origin-x="0"
       horiz-origin-y="0"
       vert-origin-x="45"
       vert-origin-y="90"
       vert-adv-y="90">
      <font-face
         ascent="1154"
         descent="314"
         font-family="rm-lmss8"
         units-per-em="1000"
         id="font-face27" />
      <glyph
         d="m477 0v77h-194c-12 0 -24 -1 -36 -1h-114l155 137c18 16 67 53 86 69c44 40 103 92 103 179c0 113 -84 216 -227 216c-106 0 -172 -57 -206 -159l47 -59c23 84 58 149 145 149c84 0 148 -59 148 -149c0 -83 -49 -130 -109 -187c-20 -20 -74 -65 -95 -85c-29 -26 -98 -93 -127 -118v-69h424z"
         glyph-name="two"
         horiz-adv-x="531"
         unicode="2"
         vert-adv-y="531"
         id="glyph29" />
    </font>
    <font
       horiz-adv-x="0"
       id="ec-lmss12"
       horiz-origin-x="0"
       horiz-origin-y="0"
       vert-origin-x="45"
       vert-origin-y="90"
       vert-adv-y="90">
      <font-face
         ascent="1154"
         descent="308"
         font-family="ec-lmss12"
         units-per-em="1000"
         id="font-face32" />
      <glyph
         d="m326 -251c-39 36 -100 114 -135 227c-27 89 -37 182 -37 273c0 295 105 439 172 501h-60c-150 -134 -188 -337 -188 -500c0 -176 43 -372 188 -501h60z"
         glyph-name="parenleft"
         horiz-adv-x="381"
         unicode="("
         vert-adv-y="381"
         id="glyph34" />
      <glyph
         d="m302 249c0 176 -43 372 -188 501h-60c39 -36 100 -114 135 -227c27 -89 37 -182 37 -273c0 -295 -105 -439 -172 -501h60c150 134 188 337 188 500z"
         glyph-name="parenright"
         horiz-adv-x="381"
         unicode=")"
         vert-adv-y="381"
         id="glyph36" />
      <glyph
         d="m176 1v80h-81v-81h25l-25 -125h40l41 126z"
         glyph-name="comma"
         horiz-adv-x="272"
         unicode=","
         vert-adv-y="272"
         id="glyph38" />
      <glyph
         d="m176 0v81h-81v-81h81z"
         glyph-name="period"
         horiz-adv-x="272"
         unicode="."
         vert-adv-y="272"
         id="glyph40" />
      <glyph
         d="m416 0v58h-122v618h-19c-16 -16 -64 -63 -172 -65c-14 0 -15 -1 -15 -19v-40c61 0 107 15 128 24v-518h-122v-58h322z"
         glyph-name="one"
         horiz-adv-x="490"
         unicode="1"
         vert-adv-y="490"
         id="glyph42" />
      <glyph
         d="m440 0v68h-178c-12 0 -24 -1 -36 -1h-107c26 27 119 119 184 177c74 65 137 127 137 219c0 111 -77 213 -209 213c-108 0 -163 -71 -190 -164c32 -40 32 -42 41 -54c25 107 62 156 136 156c86 0 142 -67 142 -153c0 -52 -21 -110 -88 -176l-223 -222v-63h391z"
         glyph-name="two"
         horiz-adv-x="490"
         unicode="2"
         vert-adv-y="490"
         id="glyph44" />
      <glyph
         d="m619 0l-252 694h-88l-252 -694h74l73 203h282l74 -203h89zm-184 259h-239l119 363l120 -363z"
         glyph-name="A"
         horiz-adv-x="647"
         unicode="A"
         vert-adv-y="647"
         id="glyph46" />
      <glyph
         d="m595 188c0 88 -87 159 -190 175c117 32 162 99 162 157c0 90 -102 174 -243 174h-231v-694h258c141 0 244 90 244 188zm-105 331c0 -70 -86 -128 -192 -128h-124v247h123c107 0 193 -53 193 -119zm26 -330c0 -70 -81 -133 -193 -133h-149v275h133c129 0 209 -72 209 -142z"
         glyph-name="B"
         horiz-adv-x="650"
         unicode="B"
         vert-adv-y="650"
         id="glyph48" />
      <glyph
         d="m575 45l-6 70c-27 -20 -56 -40 -89 -51c-32 -10 -66 -12 -100 -12c-64 0 -122 36 -162 87c-46 59 -67 133 -67 208s21 150 67 209c40 51 98 86 162 86c30 0 60 -3 89 -12c29 -10 56 -25 81 -43l15 83c-30 12 -60 21 -91 27s-63 8 -94 8c-86 0 -166 -40 -222 -105c-62 -69 -92 -160 -92 -253c0 -92 30 -183 92 -253c56 -64 136 -105 222 -105c34 0 69 2 102 11c34 10 64 27 93 45z"
         glyph-name="C"
         horiz-adv-x="626"
         unicode="C"
         vert-adv-y="626"
         id="glyph50" />
      <glyph
         d="m595 0v694h-86v-303h-333v303h-86v-694h86v331h333v-331h86z"
         glyph-name="H"
         horiz-adv-x="686"
         unicode="H"
         vert-adv-y="686"
         id="glyph52" />
      <glyph
         d="m632 0l-274 419l261 275h-94l-350 -369v369h-84v-694h84v226l129 136l236 -362h92z"
         glyph-name="K"
         horiz-adv-x="674"
         unicode="K"
         vert-adv-y="674"
         id="glyph54" />
      <glyph
         d="m594 0v694h-77v-620h-1l-81 168l-221 452h-123v-694h77v620h1l81 -168l221 -452h123z"
         glyph-name="N"
         horiz-adv-x="686"
         unicode="N"
         vert-adv-y="686"
         id="glyph56" />
      <glyph
         d="m667 345c0 212 -144 370 -306 370c-166 0 -307 -161 -307 -370c0 -211 145 -366 306 -366c165 0 307 157 307 366zm-86 15c0 -196 -108 -318 -220 -318c-116 0 -221 125 -221 318c0 184 109 293 220 293c114 0 221 -112 221 -293z"
         glyph-name="O"
         horiz-adv-x="722"
         unicode="O"
         vert-adv-y="722"
         id="glyph58" />
      <glyph
         d="m401 0v293c0 96 -69 166 -162 166c-60 0 -105 -14 -154 -42l6 -66c44 32 90 50 148 50c46 0 86 -37 86 -110v-41c-45 -2 -105 -5 -165 -25c-67 -23 -106 -60 -106 -110c0 -44 26 -125 111 -125c55 0 125 16 162 47v-37h74zm-76 134c0 -20 0 -44 -33 -64c-27 -17 -61 -20 -76 -20c-54 0 -91 29 -91 66c0 68 139 83 200 83v-65z"
         glyph-name="a"
         horiz-adv-x="469"
         unicode="a"
         vert-adv-y="469"
         id="glyph60" />
      <glyph
         d="m407 42c0 3 -3 34 -4 38l-2 28c-46 -37 -97 -56 -153 -56c-83 0 -137 74 -137 171c0 83 40 174 140 174c67 0 95 -16 138 -45l12 65c-58 34 -91 42 -150 42c-138 0 -216 -122 -216 -236c0 -128 92 -233 212 -233c49 0 105 12 160 52z"
         glyph-name="c"
         horiz-adv-x="435"
         unicode="c"
         vert-adv-y="435"
         id="glyph62" />
      <glyph
         d="m475 393l-11 61c-19 0 -87 -1 -153 -33c-33 28 -73 33 -93 33c-87 0 -157 -73 -157 -161c0 -36 11 -69 33 -99c-23 -32 -29 -62 -29 -86c0 -37 14 -62 25 -75c-51 -33 -63 -76 -63 -104c0 -73 95 -134 217 -134s218 59 218 135c0 140 -162 140 -203 140h-85c-14 0 -57 0 -57 53c0 22 4 28 10 37c17 -12 50 -29 90 -29c86 0 157 71 157 162c0 36 -13 73 -33 101c0 0 2 -2 3 -4c21 2 43 5 80 5c3 0 26 0 51 -2zm-170 -100c0 -89 -56 -107 -87 -107c-44 0 -88 30 -88 106c0 89 56 107 87 107c44 0 88 -30 88 -106zm87 -364c0 -46 -69 -79 -147 -79s-148 31 -148 80c0 3 0 68 76 68h87c22 0 132 0 132 -69z"
         glyph-name="g"
         horiz-adv-x="490"
         unicode="g"
         vert-adv-y="490"
         id="glyph64" />
      <glyph
         d="m318 387v67c-91 -1 -144 -54 -171 -93v88h-69v-449h74v219c0 101 76 167 166 168z"
         glyph-name="r"
         horiz-adv-x="333"
         unicode="r"
         vert-adv-y="333"
         id="glyph66" />
    </font>
</defs>
</svg>
