<svg xmlns="http://www.w3.org/2000/svg">
<defs>
<font
   horiz-adv-x="2048"
   id="font6058"
   horiz-origin-x="0"
   horiz-origin-y="0"
   vert-origin-x="512"
   vert-origin-y="768"
   vert-adv-y="1024">
<!-- Copyright (c) 2003 by Bitstream, Inc. All Rights Reserved.
DejaVu changes are in public domain
 -->
<!-- Copyright: Copyright 2018 Adobe System Incorporated. All rights reserved. -->
<font-face
   font-family="DejaVuSerif"
   units-per-em="2048"
   underline-position="-130"
   underline-thickness="90"
   id="font-face5666" />
<missing-glyph
   horiz-adv-x="1229"
   d="M102,-362l0,1806l1024,0l0,-1806M217,-248l795,0l0,1577l-795,0z"
   id="missing-glyph5668" />
<glyph
   unicode=" "
   horiz-adv-x="651"
   id="glyph5670" />
<glyph
   unicode="!"
   horiz-adv-x="823"
   d="M279,104C279,141 292,173 317,199C342,225 374,238 412,238C449,238 480,225 506,199C532,173 545,141 545,104C545,67 532,36 506,10C480,-16 449,-29 412,-29C374,-29 342,-16 317,10C292,35 279,67 279,104M283,1493l258,0l-68,-821l0,-252l-123,0l0,252z"
   id="glyph5672" />
<glyph
   unicode="&quot;"
   horiz-adv-x="942"
   d="M360,1493l0,-555l-159,0l0,555M741,1493l0,-555l-159,0l0,555z"
   id="glyph5674" />
<glyph
   unicode="#"
   horiz-adv-x="1716"
   d="M1042,901l-282,0l-84,-334l285,0M901,1470l-102,-415l282,0l103,415l172,0l-105,-415l308,0l0,-154l-347,0l-82,-334l314,0l0,-153l-352,0l-103,-414l-172,0l105,414l-283,0l-104,-414l-170,0l102,414l-309,0l0,153l348,0l82,334l-316,0l0,154l355,0l104,415z"
   id="glyph5676" />
<glyph
   unicode="$"
   horiz-adv-x="1303"
   d="M690,68C765,75 823,96 863,133C902,170 922,220 922,283C922,340 902,389 863,429C824,469 766,499 690,520M590,1187C521,1182 468,1163 430,1128C392,1093 373,1046 373,987C373,934 391,889 426,854C461,819 515,790 590,768M176,72l0,276l108,0C287,257 313,188 364,141C415,94 490,70 590,68l0,485C437,596 329,645 267,701C205,756 174,830 174,922C174,1029 211,1114 284,1179C357,1244 459,1280 590,1288l0,268l100,0l0,-268C757,1283 822,1272 885,1256C947,1239 1008,1217 1067,1190l0,-262l-109,0C950,1005 923,1066 877,1111C831,1156 769,1181 690,1187l0,-452C854,690 969,639 1035,582C1100,524 1133,447 1133,350C1133,239 1094,151 1017,84C940,17 831,-21 690,-31l0,-270l-100,0l0,270C526,-30 460,-20 391,-3C322,14 251,39 176,72z"
   id="glyph5678" />
<glyph
   unicode="%"
   horiz-adv-x="1946"
   d="M459,1427C400,1427 355,1399 322,1344C289,1289 272,1211 272,1112C272,1014 289,937 323,881C356,825 402,797 459,797C516,797 561,825 594,881C627,936 643,1013 643,1112C643,1211 627,1288 594,1344C561,1399 516,1427 459,1427M1489,694C1431,694 1386,666 1353,610C1320,554 1303,476 1303,377C1303,279 1320,202 1353,147C1386,91 1432,63 1489,63C1546,63 1591,91 1624,147C1657,202 1673,279 1673,377C1673,476 1657,553 1624,610C1591,666 1546,694 1489,694M1489,784C1594,784 1678,747 1740,674C1802,601 1833,502 1833,377C1833,252 1802,154 1740,81C1677,8 1594,-29 1489,-29C1382,-29 1298,8 1236,81C1174,154 1143,252 1143,377C1143,502 1174,602 1237,675C1299,748 1383,784 1489,784M1364,1520l152,0l-934,-1549l-152,0M457,1520C562,1520 646,1484 709,1411C772,1338 803,1239 803,1114C803,988 772,889 710,816C647,743 563,707 457,707C351,707 267,744 206,817C144,890 113,989 113,1114C113,1238 144,1337 206,1410C268,1483 352,1520 457,1520z"
   id="glyph5680" />
<glyph
   unicode="&amp;"
   horiz-adv-x="1823"
   d="M1106,231l-582,613C466,792 423,736 394,676C365,615 350,551 350,483C350,372 388,280 465,205C542,130 637,92 752,92C820,92 884,104 945,128C1005,151 1059,186 1106,231M1726,0l-401,0l-137,145C1118,86 1043,43 964,14C885,-15 799,-29 707,-29C535,-29 399,15 298,103C197,191 147,310 147,461C147,550 173,633 224,710C275,787 352,859 455,926C421,967 396,1007 380,1048C364,1088 356,1130 356,1174C356,1280 394,1364 471,1427C547,1489 651,1520 782,1520C827,1520 879,1514 939,1503C998,1492 1066,1475 1143,1452l0,-258l-113,0C1021,1265 995,1320 952,1357C909,1394 851,1413 778,1413C709,1413 654,1394 611,1357C568,1319 547,1270 547,1210C547,1169 558,1129 581,1089C604,1048 651,990 723,915l516,-544C1285,424 1321,482 1348,544C1374,605 1390,671 1397,741l-180,0l0,107l473,0l0,-107l-172,0C1507,654 1485,573 1452,498C1419,423 1374,353 1319,289l172,-183l235,0z"
   id="glyph5682" />
<glyph
   unicode="'"
   horiz-adv-x="563"
   d="M360,1493l0,-555l-159,0l0,555z"
   id="glyph5684" />
<glyph
   unicode="("
   horiz-adv-x="799"
   d="M653,-319C491,-246 369,-131 286,27C203,184 162,381 162,618C162,855 203,1053 286,1211C369,1368 491,1483 653,1556l0,-98C550,1387 477,1288 432,1160C387,1031 365,851 365,618C365,386 387,206 432,78C477,-51 550,-150 653,-221z"
   id="glyph5686" />
<glyph
   unicode=")"
   horiz-adv-x="799"
   d="M145,-319l0,98C248,-150 322,-51 367,78C412,206 434,386 434,618C434,851 412,1031 367,1160C322,1288 248,1387 145,1458l0,98C308,1483 430,1368 513,1211C596,1053 637,855 637,618C637,381 596,184 513,27C430,-131 308,-246 145,-319z"
   id="glyph5688" />
<glyph
   unicode="*"
   horiz-adv-x="1024"
   d="M991,1237l-391,-182l391,-185l-76,-118l-348,217l13,-381l-136,0l13,381l-348,-217l-76,118l391,183l-391,184l76,119l348,-217l-13,381l136,0l-13,-381l348,217z"
   id="glyph5690" />
<glyph
   unicode="+"
   horiz-adv-x="1716"
   d="M938,1284l0,-561l561,0l0,-162l-561,0l0,-561l-160,0l0,561l-561,0l0,162l561,0l0,561z"
   id="glyph5692" />
<glyph
   unicode=","
   horiz-adv-x="651"
   d="M74,-199C137,-153 183,-99 212,-36C241,26 256,101 256,190l0,37l197,0C448,113 421,15 373,-66C324,-148 251,-219 154,-279z"
   id="glyph5694" />
<glyph
   unicode="-"
   horiz-adv-x="692"
   d="M90,627l512,0l0,-156l-512,0z"
   id="glyph5696" />
<glyph
   unicode="."
   horiz-adv-x="651"
   d="M193,104C193,141 206,173 231,199C256,225 288,238 326,238C363,238 394,225 420,199C446,173 459,141 459,104C459,67 446,36 420,10C394,-16 363,-29 326,-29C288,-29 256,-16 231,10C206,35 193,67 193,104z"
   id="glyph5698" />
<glyph
   unicode="/"
   horiz-adv-x="690"
   d="M530,1493l160,0l-530,-1683l-160,0z"
   id="glyph5700" />
<glyph
   unicode="0"
   horiz-adv-x="1303"
   d="M651,70C753,70 829,126 880,238C931,350 956,519 956,745C956,972 931,1141 880,1253C829,1365 753,1421 651,1421C549,1421 473,1365 422,1253C371,1141 346,972 346,745C346,519 371,350 422,238C473,126 549,70 651,70M651,-29C489,-29 363,39 272,175C181,311 135,501 135,745C135,990 181,1180 272,1316C363,1452 489,1520 651,1520C814,1520 940,1452 1031,1316C1122,1180 1167,990 1167,745C1167,501 1122,311 1031,175C940,39 814,-29 651,-29z"
   id="glyph5702" />
<glyph
   unicode="1"
   horiz-adv-x="1303"
   d="M291,0l0,106l260,0l0,1242l-301,-195l0,131l364,236l138,0l0,-1414l260,0l0,-106z"
   id="glyph5704" />
<glyph
   unicode="2"
   horiz-adv-x="1303"
   d="M262,1137l-112,0l0,266C221,1441 293,1470 366,1490C438,1510 509,1520 578,1520C733,1520 856,1482 946,1407C1036,1332 1081,1229 1081,1100C1081,954 979,779 775,576C759,561 747,549 739,541l-377,-377l623,0l0,184l117,0l0,-348l-963,0l0,109l453,452C692,661 763,753 806,837C849,920 870,1008 870,1100C870,1201 844,1279 792,1336C739,1393 667,1421 575,1421C480,1421 406,1397 354,1350C302,1303 271,1232 262,1137z"
   id="glyph5706" />
<glyph
   unicode="3"
   horiz-adv-x="1303"
   d="M199,1430C277,1459 352,1482 424,1497C495,1512 562,1520 625,1520C771,1520 885,1489 967,1426C1049,1363 1090,1275 1090,1163C1090,1073 1062,998 1005,938C948,877 868,836 764,815C887,798 982,753 1050,682C1117,610 1151,517 1151,403C1151,264 1104,157 1011,83C917,8 782,-29 606,-29C528,-29 452,-21 378,-4C303,13 229,38 156,72l0,290l112,0C275,266 307,193 365,144C423,95 505,70 610,70C712,70 793,100 852,159C911,218 940,298 940,401C940,518 910,607 849,668C788,728 699,758 582,758l-95,0l0,102l50,0C654,860 741,884 800,933C858,981 887,1054 887,1151C887,1238 863,1305 815,1352C767,1398 698,1421 608,1421C518,1421 448,1400 399,1357C349,1314 320,1251 311,1167l-112,0z"
   id="glyph5708" />
<glyph
   unicode="4"
   horiz-adv-x="1303"
   d="M715,506l0,794l-510,-794M1155,0l-680,0l0,106l240,0l0,293l-652,0l0,109l654,1012l198,0l0,-1014l285,0l0,-107l-285,0l0,-293l240,0z"
   id="glyph5710" />
<glyph
   unicode="5"
   horiz-adv-x="1303"
   d="M1030,1493l0,-164l-684,0l0,-428C381,925 421,943 468,955C514,967 566,973 623,973C784,973 912,928 1005,839C1098,750 1145,628 1145,473C1145,315 1098,192 1004,104C909,15 777,-29 606,-29C537,-29 467,-21 395,-4C323,13 249,38 174,72l0,290l113,0C293,267 323,195 378,145C432,95 508,70 606,70C711,70 792,105 849,174C906,243 934,343 934,473C934,602 906,702 850,771C793,840 712,874 606,874C546,874 493,863 448,842C402,821 361,788 326,743l-86,0l0,750z"
   id="glyph5712" />
<glyph
   unicode="6"
   horiz-adv-x="1303"
   d="M670,70C764,70 836,105 887,174C938,243 963,342 963,471C963,600 938,700 887,769C836,838 764,872 670,872C575,872 502,839 452,772C402,705 377,609 377,483C377,350 402,248 453,177C504,106 576,70 670,70M344,822C389,872 441,909 498,934C555,959 620,971 692,971C841,971 958,926 1045,837C1131,748 1174,626 1174,471C1174,320 1128,199 1035,108C942,17 817,-29 662,-29C493,-29 364,34 273,160C182,285 137,465 137,698C137,959 191,1162 298,1305C405,1448 557,1520 752,1520C805,1520 860,1515 918,1505C976,1495 1035,1480 1096,1460l0,-246l-113,0C975,1281 949,1333 906,1368C863,1403 804,1421 731,1421C602,1421 505,1372 442,1274C379,1176 346,1025 344,822z"
   id="glyph5714" />
<glyph
   unicode="7"
   horiz-adv-x="1303"
   d="M1155,1391l-584,-1391l-149,0l557,1329l-690,0l0,-184l-117,0l0,348l983,0z"
   id="glyph5716" />
<glyph
   unicode="8"
   horiz-adv-x="1303"
   d="M954,408C954,515 928,598 875,657C822,716 747,745 651,745C555,745 481,716 428,657C375,598 348,515 348,408C348,301 375,218 428,159C481,100 555,70 651,70C747,70 822,100 875,159C928,218 954,301 954,408M913,1133C913,1224 890,1294 844,1345C798,1396 734,1421 651,1421C569,1421 505,1396 459,1345C412,1294 389,1224 389,1133C389,1042 412,971 459,920C505,869 569,844 651,844C734,844 798,869 844,920C890,971 913,1042 913,1133M805,795C918,780 1007,738 1070,670C1133,601 1165,514 1165,408C1165,268 1121,160 1032,85C943,9 816,-29 651,-29C486,-29 360,9 271,85C182,160 137,268 137,408C137,514 169,601 232,670C295,738 384,780 498,795C397,813 320,851 267,910C213,968 186,1042 186,1133C186,1253 227,1348 310,1417C393,1486 506,1520 651,1520C796,1520 909,1486 992,1417C1075,1348 1116,1253 1116,1133C1116,1042 1089,968 1036,910C982,851 905,813 805,795z"
   id="glyph5718" />
<glyph
   unicode="9"
   horiz-adv-x="1303"
   d="M958,669C913,619 862,582 804,557C746,532 681,520 608,520C460,520 343,565 258,654C172,743 129,865 129,1020C129,1171 176,1293 269,1384C362,1475 486,1520 641,1520C810,1520 939,1457 1030,1332C1120,1206 1165,1026 1165,793C1165,532 1111,329 1004,186C897,43 746,-29 551,-29C498,-29 443,-24 385,-14C327,-4 268,11 207,31l0,248l112,0C328,212 354,160 397,124C440,88 498,70 571,70C700,70 797,119 860,217C923,314 956,465 958,669M633,1421C538,1421 466,1387 416,1318C365,1249 340,1149 340,1020C340,891 365,791 416,722C466,653 538,618 633,618C728,618 800,652 851,719C901,786 926,882 926,1008C926,1141 901,1243 850,1314C799,1385 727,1421 633,1421z"
   id="glyph5720" />
<glyph
   unicode=":"
   horiz-adv-x="690"
   d="M213,104C213,141 226,173 252,199C277,225 309,238 346,238C383,238 415,225 441,199C466,173 479,141 479,104C479,67 466,35 441,10C416,-16 384,-29 346,-29C308,-29 276,-16 251,10C226,35 213,67 213,104M213,756C213,793 226,825 252,851C277,876 309,889 346,889C384,889 416,876 441,851C466,826 479,794 479,756C479,718 466,686 441,661C416,636 384,623 346,623C309,623 277,636 252,662C226,687 213,719 213,756z"
   id="glyph5722" />
<glyph
   unicode=";"
   horiz-adv-x="690"
   d="M74,-199C137,-153 183,-99 212,-36C241,26 256,101 256,190l0,37l197,0C448,113 421,15 373,-66C324,-148 251,-219 154,-279M217,756C217,793 230,825 256,851C281,876 313,889 350,889C387,889 419,876 445,850C470,824 483,793 483,756C483,719 470,687 445,662C419,636 387,623 350,623C313,623 281,636 256,662C230,687 217,719 217,756z"
   id="glyph5724" />
<glyph
   unicode="&lt;"
   horiz-adv-x="1716"
   d="M1499,1020l-1038,-379l1038,-377l0,-170l-1282,465l0,166l1282,465z"
   id="glyph5726" />
<glyph
   unicode="="
   horiz-adv-x="1716"
   d="M217,926l1282,0l0,-160l-1282,0M217,518l1282,0l0,-160l-1282,0z"
   id="glyph5728" />
<glyph
   unicode="&gt;"
   horiz-adv-x="1716"
   d="M217,1020l0,170l1282,-465l0,-166l-1282,-465l0,170l1038,377z"
   id="glyph5730" />
<glyph
   unicode="?"
   horiz-adv-x="1098"
   d="M360,104C360,141 373,173 399,199C424,225 456,238 494,238C531,238 562,225 588,199C614,173 627,141 627,104C627,67 614,36 588,10C562,-16 531,-29 494,-29C456,-29 424,-16 399,10C373,35 360,67 360,104M139,1427C210,1458 277,1482 341,1497C404,1512 464,1520 520,1520C668,1520 785,1484 871,1413C956,1342 999,1245 999,1124C999,1000 962,899 889,820C815,741 704,685 555,651l0,-254l-123,0l0,328C550,754 639,802 699,869C758,936 788,1022 788,1126C788,1217 764,1289 715,1342C666,1395 600,1421 516,1421C440,1421 378,1399 330,1356C281,1312 250,1249 236,1167l-97,0z"
   id="glyph5732" />
<glyph
   unicode="@"
   horiz-adv-x="2048"
   d="M1294,248C1255,193 1211,153 1162,126C1113,99 1057,86 995,86C878,86 784,128 711,211C638,294 602,403 602,537C602,671 638,780 711,863C784,946 878,987 995,987C1057,987 1113,974 1162,947C1211,920 1255,880 1294,825l0,142l156,0l0,-772C1563,220 1651,274 1714,357C1777,440 1808,545 1808,670C1808,744 1797,814 1774,880C1751,946 1718,1007 1673,1063C1602,1152 1516,1220 1415,1267C1313,1314 1202,1337 1083,1337C1023,1337 964,1331 905,1318C846,1305 788,1286 731,1260C596,1198 492,1104 417,979C342,853 305,708 305,543C305,432 322,329 355,236C388,142 437,61 500,-8C573,-87 659,-148 759,-189C858,-231 966,-252 1081,-252C1167,-252 1247,-239 1322,-214C1397,-189 1466,-151 1530,-100l53,-70C1511,-232 1429,-278 1338,-309C1247,-340 1147,-356 1038,-356C916,-356 800,-334 689,-289C578,-245 480,-182 397,-100C311,-15 246,82 202,191C157,300 135,417 135,543C135,666 157,781 202,890C247,999 312,1095 397,1180C482,1264 582,1329 697,1374C812,1419 934,1442 1063,1442C1206,1442 1336,1414 1454,1359C1571,1304 1670,1224 1749,1120C1800,1055 1838,984 1864,907C1890,830 1903,751 1903,668C1903,489 1849,348 1740,245C1631,141 1483,88 1295,86M1294,485l0,105C1294,673 1270,741 1223,793C1175,844 1113,870 1036,870C955,870 893,841 848,783C803,724 780,642 780,537C780,431 803,349 848,291C893,232 957,203 1038,203C1114,203 1176,229 1223,282C1270,334 1294,402 1294,485z"
   id="glyph5734" />
<glyph
   unicode="A"
   horiz-adv-x="1479"
   d="M410,541l548,0l-274,710M-12,0l0,106l131,0l532,1387l168,0l533,-1387l147,0l0,-106l-543,0l0,106l166,0l-125,328l-628,0l-125,-328l164,0l0,-106z"
   id="glyph5736" />
<glyph
   unicode="B"
   horiz-adv-x="1505"
   d="M506,106l299,0C925,106 1013,132 1068,184C1123,236 1151,319 1151,432C1151,545 1124,627 1069,679C1014,730 926,756 805,756l-299,0M506,862l254,0C869,862 949,883 1000,925C1050,967 1075,1033 1075,1124C1075,1215 1050,1282 1000,1324C949,1365 869,1386 760,1386l-254,0M113,0l0,106l190,0l0,1280l-190,0l0,107l737,0C1001,1493 1114,1462 1191,1401C1267,1339 1305,1247 1305,1124C1305,1035 1279,965 1226,912C1173,859 1095,827 993,815C1120,799 1216,759 1282,694C1347,629 1380,541 1380,432C1380,284 1333,175 1240,105C1147,35 1001,0 803,0z"
   id="glyph5738" />
<glyph
   unicode="C"
   horiz-adv-x="1567"
   d="M1444,395C1400,256 1326,150 1223,79C1119,7 988,-29 829,-29C732,-29 641,-12 558,21C475,54 401,103 336,168C261,243 206,328 170,423C133,518 115,625 115,745C115,977 182,1164 316,1307C450,1449 627,1520 846,1520C927,1520 1014,1509 1106,1488C1198,1467 1297,1434 1403,1391l0,-344l-113,0C1265,1172 1216,1265 1142,1324C1067,1383 963,1413 829,1413C670,1413 549,1357 467,1244C385,1131 344,964 344,745C344,526 385,361 467,248C549,135 670,78 829,78C940,78 1032,105 1104,158C1176,211 1228,290 1260,395z"
   id="glyph5740" />
<glyph
   unicode="D"
   horiz-adv-x="1642"
   d="M506,106l186,0C886,106 1035,161 1139,272C1242,383 1294,541 1294,748C1294,955 1242,1113 1139,1222C1036,1331 887,1386 692,1386l-186,0M113,0l0,106l190,0l0,1280l-190,0l0,107l594,0C964,1493 1165,1427 1309,1296C1452,1165 1524,982 1524,748C1524,513 1452,330 1308,198C1164,66 964,0 707,0z"
   id="glyph5742" />
<glyph
   unicode="E"
   horiz-adv-x="1495"
   d="M113,0l0,106l190,0l0,1280l-190,0l0,107l1202,0l0,-332l-123,0l0,209l-686,0l0,-500l489,0l0,187l123,0l0,-496l-123,0l0,187l-489,0l0,-625l702,0l0,209l123,0l0,-332z"
   id="glyph5744" />
<glyph
   unicode="F"
   horiz-adv-x="1421"
   d="M113,0l0,106l190,0l0,1280l-190,0l0,107l1222,0l0,-332l-123,0l0,209l-706,0l0,-500l510,0l0,187l123,0l0,-496l-123,0l0,187l-510,0l0,-642l239,0l0,-106z"
   id="glyph5746" />
<glyph
   unicode="G"
   horiz-adv-x="1636"
   d="M1311,1047C1288,1172 1239,1264 1165,1324C1091,1383 988,1413 856,1413C684,1413 556,1358 471,1247C386,1136 344,969 344,745C344,526 388,360 475,247C562,134 691,78 860,78C935,78 1007,87 1076,106C1145,125 1210,153 1272,190l0,385l-281,0l0,107l484,0l0,-557C1386,74 1291,35 1189,10C1086,-16 977,-29 860,-29C635,-29 454,42 319,183C183,324 115,511 115,745C115,981 183,1169 319,1310C455,1450 638,1520 868,1520C953,1520 1042,1510 1133,1491C1224,1471 1320,1441 1423,1401l0,-354z"
   id="glyph5748" />
<glyph
   unicode="H"
   horiz-adv-x="1786"
   d="M113,0l0,106l190,0l0,1280l-190,0l0,107l583,0l0,-107l-190,0l0,-516l774,0l0,516l-190,0l0,107l583,0l0,-107l-190,0l0,-1280l190,0l0,-106l-583,0l0,106l190,0l0,642l-774,0l0,-642l190,0l0,-106z"
   id="glyph5750" />
<glyph
   unicode="I"
   horiz-adv-x="809"
   d="M506,106l190,0l0,-106l-583,0l0,106l190,0l0,1280l-190,0l0,107l583,0l0,-107l-190,0z"
   id="glyph5752" />
<glyph
   unicode="J"
   horiz-adv-x="821"
   d="M-172,-358l0,235l114,0C-56,-189 -40,-238 -11,-270C18,-303 62,-319 121,-319C200,-319 256,-294 287,-244C318,-194 334,-96 334,49l0,1337l-232,0l0,107l625,0l0,-107l-190,0l0,-1345C537,-124 504,-243 438,-316C372,-389 266,-426 119,-426C72,-426 24,-420 -25,-409C-74,-398 -123,-381 -172,-358z"
   id="glyph5754" />
<glyph
   unicode="K"
   horiz-adv-x="1530"
   d="M113,0l0,106l190,0l0,1280l-190,0l0,107l583,0l0,-107l-190,0l0,-565l643,565l-162,0l0,107l496,0l0,-107l-168,0l-641,-563l717,-717l170,0l0,-106l-347,0l-708,709l0,-603l190,0l0,-106z"
   id="glyph5756" />
<glyph
   unicode="L"
   horiz-adv-x="1360"
   d="M113,0l0,106l190,0l0,1280l-190,0l0,107l583,0l0,-107l-190,0l0,-1263l682,0l0,250l123,0l0,-373z"
   id="glyph5758" />
<glyph
   unicode="M"
   horiz-adv-x="2097"
   d="M113,0l0,106l190,0l0,1280l-201,0l0,107l435,0l524,-1063l524,1063l408,0l0,-107l-199,0l0,-1280l191,0l0,-106l-584,0l0,106l190,0l0,1154l-512,-1041l-141,0l-512,1041l0,-1154l190,0l0,-106z"
   id="glyph5760" />
<glyph
   unicode="N"
   horiz-adv-x="1792"
   d="M100,0l0,106l201,0l0,1280l-201,0l0,107l383,0l895,-1178l0,1071l-200,0l0,107l524,0l0,-107l-201,0l0,-1415l-121,0l-956,1258l0,-1123l201,0l0,-106z"
   id="glyph5762" />
<glyph
   unicode="O"
   horiz-adv-x="1679"
   d="M840,78C1003,78 1127,134 1210,247C1293,359 1335,525 1335,745C1335,966 1293,1132 1210,1245C1127,1357 1003,1413 840,1413C676,1413 552,1357 469,1245C386,1132 344,966 344,745C344,525 386,359 469,247C552,134 676,78 840,78M840,-29C739,-29 646,-12 561,21C476,54 401,103 336,168C261,243 206,327 170,422C133,517 115,624 115,745C115,866 133,974 170,1069C206,1164 261,1248 336,1323C401,1388 476,1438 560,1471C644,1504 737,1520 840,1520C1057,1520 1232,1449 1365,1307C1498,1165 1565,978 1565,745C1565,626 1547,518 1510,423C1473,327 1418,242 1343,168C1278,103 1203,54 1119,21C1035,-12 942,-29 840,-29z"
   id="glyph5764" />
<glyph
   unicode="P"
   horiz-adv-x="1378"
   d="M506,760l264,0C869,760 945,787 997,841C1049,894 1075,972 1075,1073C1075,1175 1049,1253 997,1306C945,1359 869,1386 770,1386l-264,0M113,0l0,106l190,0l0,1280l-190,0l0,107l706,0C968,1493 1087,1455 1174,1380C1261,1304 1305,1202 1305,1073C1305,945 1261,843 1174,767C1087,691 968,653 819,653l-313,0l0,-547l231,0l0,-106z"
   id="glyph5766" />
<glyph
   unicode="Q"
   horiz-adv-x="1679"
   d="M864,-29C635,-29 453,41 318,182C183,322 115,510 115,745C115,866 133,974 170,1069C206,1164 261,1248 336,1323C401,1388 476,1438 560,1471C644,1504 737,1520 840,1520C1057,1520 1232,1449 1365,1307C1498,1165 1565,978 1565,745C1565,548 1515,382 1415,248C1315,113 1177,27 1001,-12C1037,-57 1081,-90 1133,-111C1184,-132 1246,-143 1319,-143l31,0l0,-185C1237,-323 1141,-295 1061,-245C980,-196 915,-124 864,-29M840,78C1003,78 1127,134 1210,247C1293,359 1335,525 1335,745C1335,966 1293,1132 1210,1245C1127,1357 1003,1413 840,1413C676,1413 552,1357 469,1245C386,1132 344,966 344,745C344,525 386,359 469,247C552,134 676,78 840,78z"
   id="glyph5768" />
<glyph
   unicode="R"
   horiz-adv-x="1542"
   d="M981,741C1028,728 1068,707 1102,677C1135,646 1165,604 1192,549l217,-443l182,0l0,-106l-352,0l-233,475C961,567 920,627 883,654C846,681 794,694 729,694l-223,0l0,-588l211,0l0,-106l-604,0l0,106l190,0l0,1280l-190,0l0,107l757,0C1015,1493 1128,1458 1207,1389C1286,1320 1325,1221 1325,1094C1325,991 1296,911 1239,852C1181,793 1095,756 981,741M506,801l295,0C902,801 976,825 1024,873C1072,920 1096,994 1096,1094C1096,1194 1072,1268 1024,1315C976,1362 902,1386 801,1386l-295,0z"
   id="glyph5770" />
<glyph
   unicode="S"
   horiz-adv-x="1403"
   d="M190,72l0,340l115,-1C308,298 341,214 404,160C466,105 561,78 688,78C807,78 897,102 960,149C1022,196 1053,264 1053,354C1053,426 1034,481 997,520C959,559 879,596 758,633l-197,59C418,735 318,789 260,854C201,919 172,1007 172,1120C172,1247 217,1345 307,1415C397,1485 523,1520 686,1520C755,1520 831,1513 914,1498C997,1483 1085,1461 1178,1432l0,-318l-113,0C1054,1219 1019,1296 960,1343C901,1390 811,1413 690,1413C585,1413 505,1392 450,1349C395,1306 367,1243 367,1161C367,1090 388,1034 429,993C470,952 558,912 692,872l185,-55C1012,776 1109,725 1167,662C1224,599 1253,514 1253,408C1253,263 1207,154 1114,81C1021,8 883,-29 700,-29C618,-29 535,-21 450,-4C365,13 278,38 190,72z"
   id="glyph5772" />
<glyph
   unicode="T"
   horiz-adv-x="1366"
   d="M391,0l0,106l191,0l0,1268l-439,0l0,-233l-123,0l0,352l1326,0l0,-352l-123,0l0,233l-439,0l0,-1268l191,0l0,-106z"
   id="glyph5774" />
<glyph
   unicode="U"
   horiz-adv-x="1726"
   d="M287,1386l-191,0l0,107l584,0l0,-107l-191,0l0,-772C489,423 520,290 583,215C645,140 752,102 905,102C1058,102 1165,140 1228,215C1290,290 1321,423 1321,614l0,772l-191,0l0,107l504,0l0,-107l-190,0l0,-792C1444,367 1400,206 1313,112C1226,18 1077,-29 868,-29C659,-29 510,18 421,113C332,208 287,368 287,594z"
   id="glyph5776" />
<glyph
   unicode="V"
   horiz-adv-x="1479"
   d="M358,1386l441,-1146l440,1146l-168,0l0,107l438,0l0,-107l-145,0l-533,-1386l-172,0l-530,1386l-149,0l0,107l544,0l0,-107z"
   id="glyph5778" />
<glyph
   unicode="W"
   horiz-adv-x="2105"
   d="M1561,0l-164,0l-342,1214l-342,-1214l-164,0l-391,1386l-148,0l0,107l545,0l0,-107l-186,0l311,-1103l340,1210l162,0l346,-1223l313,1116l-172,0l0,107l430,0l0,-107l-147,0z"
   id="glyph5780" />
<glyph
   unicode="X"
   horiz-adv-x="1458"
   d="M678,639l-365,-533l193,0l0,-106l-494,0l0,106l172,0l430,627l-436,653l-160,0l0,107l592,0l0,-107l-176,0l320,-481l329,481l-192,0l0,107l489,0l0,-107l-168,0l-395,-575l471,-705l160,0l0,-106l-592,0l0,106l178,0z"
   id="glyph5782" />
<glyph
   unicode="Y"
   horiz-adv-x="1352"
   d="M387,0l0,106l191,0l0,537l-461,743l-140,0l0,107l555,0l0,-107l-174,0l373,-604l373,604l-168,0l0,107l434,0l0,-107l-141,0l-449,-724l0,-556l191,0l0,-106z"
   id="glyph5784" />
<glyph
   unicode="Z"
   horiz-adv-x="1423"
   d="M92,0l0,72l930,1298l-772,0l0,-223l-123,0l0,346l1180,0l0,-72l-930,-1298l844,0l0,209l122,0l0,-332z"
   id="glyph5786" />
<glyph
   unicode="["
   horiz-adv-x="799"
   d="M176,1556l465,0l0,-106l-274,0l0,-1614l274,0l0,-106l-465,0z"
   id="glyph5788" />
<glyph
   unicode="\"
   horiz-adv-x="690"
   d="M160,1493l530,-1683l-160,0l-530,1683z"
   id="glyph5790" />
<glyph
   unicode="]"
   horiz-adv-x="799"
   d="M623,1556l0,-1826l-465,0l0,106l274,0l0,1614l-274,0l0,106z"
   id="glyph5792" />
<glyph
   unicode="^"
   horiz-adv-x="1716"
   d="M956,1493l543,-557l-153,0l-488,381l-487,-381l-154,0l543,557z"
   id="glyph5794" />
<glyph
   unicode="_"
   horiz-adv-x="1024"
   d="M1024,-403l0,-80l-1024,0l0,80z"
   id="glyph5796" />
<glyph
   unicode="`"
   horiz-adv-x="1024"
   d="M367,1636l260,-376l-117,0l-340,376z"
   id="glyph5798" />
<glyph
   unicode="a"
   horiz-adv-x="1221"
   d="M815,334l0,225l-237,0C487,559 419,539 374,500C329,461 307,400 307,319C307,245 330,186 375,143C420,100 482,78 559,78C636,78 698,102 745,149C792,196 815,258 815,334M999,664l0,-558l164,0l0,-106l-348,0l0,115C774,66 727,29 674,6C621,-17 558,-29 487,-29C369,-29 275,2 206,65C137,128 102,212 102,319C102,429 142,514 221,575C300,636 412,666 557,666l258,0l0,73C815,820 791,882 742,927C693,971 624,993 535,993C462,993 403,976 360,943C317,910 290,860 279,795l-95,0l0,215C248,1037 310,1058 371,1072C431,1085 490,1092 547,1092C694,1092 807,1056 884,983C961,910 999,803 999,664z"
   id="glyph5800" />
<glyph
   unicode="b"
   horiz-adv-x="1311"
   d="M236,106l0,1344l-177,0l0,106l361,0l0,-659C456,964 502,1013 558,1045C613,1076 682,1092 764,1092C895,1092 1001,1040 1084,937C1167,834 1208,699 1208,532C1208,365 1167,230 1084,127C1001,23 895,-29 764,-29C682,-29 613,-13 558,19C502,50 456,99 420,166l0,-166l-361,0l0,106M420,479C420,351 445,254 494,187C543,120 614,86 707,86C801,86 872,124 921,199C969,274 993,385 993,532C993,679 969,790 921,865C872,940 801,977 707,977C614,977 543,943 494,876C445,809 420,711 420,584z"
   id="glyph5802" />
<glyph
   unicode="c"
   horiz-adv-x="1147"
   d="M1053,319C1027,206 977,119 903,60C829,1 733,-29 616,-29C461,-29 337,22 243,125C149,227 102,363 102,532C102,702 149,838 243,940C337,1041 461,1092 616,1092C683,1092 750,1084 817,1069C884,1053 951,1029 1018,997l0,-272l-107,0C897,818 867,886 820,929C773,972 705,993 618,993C519,993 444,955 393,878C342,801 317,685 317,532C317,379 342,263 393,186C443,109 518,70 618,70C697,70 761,91 808,132C855,173 888,236 905,319z"
   id="glyph5804" />
<glyph
   unicode="d"
   horiz-adv-x="1311"
   d="M1075,106l176,0l0,-106l-360,0l0,166C855,99 809,50 754,19C698,-13 629,-29 547,-29C416,-29 310,23 227,127C144,230 102,365 102,532C102,699 143,834 226,937C309,1040 416,1092 547,1092C629,1092 698,1076 754,1045C809,1013 855,964 891,897l0,553l-174,0l0,106l358,0M891,479l0,105C891,711 867,809 818,876C769,943 697,977 604,977C509,977 438,940 390,865C341,790 317,679 317,532C317,385 341,274 390,199C438,124 509,86 604,86C697,86 769,120 818,187C867,254 891,351 891,479z"
   id="glyph5806" />
<glyph
   unicode="e"
   horiz-adv-x="1212"
   d="M1110,512l-793,0l0,-8C317,361 344,253 398,180C452,107 532,70 637,70C718,70 784,91 836,134C887,176 923,239 944,322l148,0C1063,205 1009,118 930,59C851,0 747,-29 618,-29C463,-29 338,22 244,125C149,227 102,363 102,532C102,700 148,835 241,938C334,1041 455,1092 606,1092C767,1092 890,1043 976,944C1062,845 1107,701 1110,512M893,618C889,742 863,836 815,899C766,962 697,993 606,993C521,993 455,961 406,898C357,835 328,741 317,618z"
   id="glyph5808" />
<glyph
   unicode="f"
   horiz-adv-x="758"
   d="M881,1305l-97,0C783,1355 769,1393 742,1419C714,1445 674,1458 621,1458C552,1458 504,1439 476,1402C448,1364 434,1297 434,1200l0,-137l297,0l0,-107l-297,0l0,-850l236,0l0,-106l-596,0l0,106l176,0l0,850l-176,0l0,107l176,0l0,133C250,1315 281,1404 343,1465C404,1526 495,1556 614,1556C659,1556 703,1552 748,1544C793,1536 837,1524 881,1507z"
   id="glyph5810" />
<glyph
   unicode="g"
   horiz-adv-x="1311"
   d="M1075,956l0,-933C1075,-130 1033,-247 949,-330C865,-413 745,-455 590,-455C520,-455 453,-449 389,-436C325,-423 264,-404 205,-379l0,223l96,0C313,-225 341,-276 386,-308C431,-340 495,-356 578,-356C686,-356 765,-325 816,-264C866,-203 891,-108 891,23l0,143C855,99 809,50 754,19C698,-13 629,-29 547,-29C416,-29 310,23 227,127C144,230 102,365 102,532C102,699 143,834 226,937C309,1040 416,1092 547,1092C629,1092 698,1076 754,1045C809,1013 855,964 891,897l0,166l360,0l0,-107M891,584C891,711 867,809 818,876C769,943 697,977 604,977C509,977 438,940 390,865C341,790 317,679 317,532C317,385 341,274 390,199C438,124 509,86 604,86C697,86 769,120 818,187C867,254 891,351 891,479z"
   id="glyph5812" />
<glyph
   unicode="h"
   horiz-adv-x="1319"
   d="M84,0l0,106l166,0l0,1344l-176,0l0,106l360,0l0,-682C468,946 512,1000 567,1037C621,1074 684,1092 756,1092C873,1092 960,1058 1015,991C1070,924 1098,819 1098,676l0,-570l164,0l0,-106l-508,0l0,106l159,0l0,512C913,748 897,837 866,885C834,932 777,956 696,956C611,956 546,925 501,863C456,801 434,711 434,592l0,-486l160,0l0,-106z"
   id="glyph5814" />
<glyph
   unicode="i"
   horiz-adv-x="655"
   d="M199,1393C199,1424 210,1450 233,1473C255,1496 282,1507 313,1507C344,1507 370,1496 393,1473C415,1450 426,1424 426,1393C426,1362 415,1335 393,1313C371,1291 344,1280 313,1280C282,1280 255,1291 233,1313C210,1335 199,1362 199,1393M434,106l174,0l0,-106l-534,0l0,106l176,0l0,850l-176,0l0,107l360,0z"
   id="glyph5816" />
<glyph
   unicode="j"
   horiz-adv-x="635"
   d="M205,1393C205,1424 216,1450 239,1473C261,1496 288,1507 319,1507C350,1507 376,1496 399,1473C421,1450 432,1424 432,1393C432,1362 421,1335 400,1313C378,1291 351,1280 319,1280C288,1280 261,1291 239,1313C216,1335 205,1362 205,1393M250,956l-174,0l0,107l358,0l0,-1167C434,-213 402,-299 337,-361C272,-424 182,-455 68,-455C20,-455 -26,-449 -69,-438C-113,-427 -156,-411 -197,-389l0,219l95,0C-97,-234 -81,-281 -52,-311C-24,-341 17,-356 72,-356C133,-356 178,-335 207,-294C236,-253 250,-190 250,-104z"
   id="glyph5818" />
<glyph
   unicode="k"
   horiz-adv-x="1241"
   d="M586,0l-516,0l0,106l166,0l0,1344l-177,0l0,106l361,0l0,-1013l448,413l-153,0l0,107l481,0l0,-107l-182,0l-316,-292l404,-558l153,0l0,-106l-524,0l0,106l152,0l-318,437l-145,-135l0,-302l166,0z"
   id="glyph5820" />
<glyph
   unicode="l"
   horiz-adv-x="655"
   d="M420,106l174,0l0,-106l-535,0l0,106l177,0l0,1344l-177,0l0,106l361,0z"
   id="glyph5822" />
<glyph
   unicode="m"
   horiz-adv-x="1942"
   d="M1061,856C1096,934 1142,993 1197,1033C1252,1072 1316,1092 1389,1092C1500,1092 1583,1058 1638,989C1693,920 1720,815 1720,676l0,-570l166,0l0,-106l-510,0l0,106l160,0l0,549C1536,764 1520,841 1488,887C1456,933 1403,956 1329,956C1247,956 1185,925 1142,863C1099,801 1077,711 1077,592l0,-486l160,0l0,-106l-504,0l0,106l160,0l0,556C893,768 877,844 845,889C813,934 760,956 686,956C604,956 542,925 499,863C456,801 434,711 434,592l0,-486l160,0l0,-106l-510,0l0,106l166,0l0,852l-176,0l0,105l360,0l0,-189C468,945 511,999 564,1036C617,1073 676,1092 743,1092C826,1092 895,1072 950,1031C1005,990 1042,931 1061,856z"
   id="glyph5824" />
<glyph
   unicode="n"
   horiz-adv-x="1319"
   d="M84,0l0,106l166,0l0,850l-176,0l0,107l360,0l0,-189C468,946 512,1000 567,1037C621,1074 684,1092 756,1092C873,1092 960,1058 1015,991C1070,924 1098,819 1098,676l0,-570l164,0l0,-106l-508,0l0,106l159,0l0,512C913,748 897,837 865,886C833,934 777,958 696,958C611,958 546,927 501,865C456,802 434,711 434,592l0,-486l160,0l0,-106z"
   id="glyph5826" />
<glyph
   unicode="o"
   horiz-adv-x="1233"
   d="M616,70C715,70 789,109 840,187C890,265 915,380 915,532C915,684 890,799 840,877C789,954 715,993 616,993C517,993 443,954 393,877C342,799 317,684 317,532C317,380 342,265 393,187C444,109 518,70 616,70M616,-29C461,-29 337,22 243,125C149,227 102,363 102,532C102,701 149,837 243,939C336,1041 461,1092 616,1092C771,1092 896,1041 990,939C1083,837 1130,701 1130,532C1130,363 1083,227 990,125C896,22 771,-29 616,-29z"
   id="glyph5828" />
<glyph
   unicode="p"
   horiz-adv-x="1311"
   d="M420,584l0,-105C420,351 445,254 494,187C543,120 614,86 707,86C801,86 872,124 921,199C969,274 993,385 993,532C993,679 969,790 921,865C872,940 801,977 707,977C614,977 543,943 494,876C445,809 420,711 420,584M236,956l-177,0l0,107l361,0l0,-166C456,964 502,1013 558,1045C613,1076 682,1092 764,1092C895,1092 1001,1040 1084,937C1167,834 1208,699 1208,532C1208,365 1167,230 1084,127C1001,23 895,-29 764,-29C682,-29 613,-13 558,19C502,50 456,99 420,166l0,-485l174,0l0,-107l-535,0l0,107l177,0z"
   id="glyph5830" />
<glyph
   unicode="q"
   horiz-adv-x="1311"
   d="M1075,956l0,-1275l176,0l0,-107l-534,0l0,107l174,0l0,485C855,99 809,50 754,19C698,-13 629,-29 547,-29C416,-29 310,23 227,127C144,230 102,365 102,532C102,699 143,834 226,937C309,1040 416,1092 547,1092C629,1092 698,1076 754,1045C809,1013 855,964 891,897l0,166l360,0l0,-107M891,584C891,711 867,809 818,876C769,943 697,977 604,977C509,977 438,940 390,865C341,790 317,679 317,532C317,385 341,274 390,199C438,124 509,86 604,86C697,86 769,120 818,187C867,254 891,351 891,479z"
   id="glyph5832" />
<glyph
   unicode="r"
   horiz-adv-x="979"
   d="M979,1065l0,-266l-106,0C870,852 855,891 829,917C803,943 765,956 715,956C624,956 555,925 507,862C458,799 434,709 434,592l0,-486l213,0l0,-106l-563,0l0,106l166,0l0,852l-176,0l0,105l360,0l0,-189C470,948 516,1003 573,1039C630,1074 699,1092 780,1092C810,1092 842,1090 875,1085C908,1080 942,1074 979,1065z"
   id="glyph5834" />
<glyph
   unicode="s"
   horiz-adv-x="1051"
   d="M115,59l0,248l106,0C224,228 249,168 296,129C343,90 412,70 504,70C587,70 650,86 693,117C736,148 758,193 758,252C758,299 742,336 711,365C679,394 612,424 510,457l-133,45C286,531 220,568 179,612C138,656 117,712 117,780C117,877 153,954 224,1009C295,1064 394,1092 520,1092C576,1092 635,1085 697,1070C759,1055 823,1034 889,1006l0,-232l-106,0C780,843 756,896 711,935C666,974 604,993 526,993C449,993 390,979 351,952C311,925 291,884 291,829C291,784 306,749 336,722C366,695 426,667 516,639l146,-45C763,563 835,524 880,477C924,430 946,369 946,295C946,194 908,115 831,58C754,0 647,-29 512,-29C443,-29 376,-22 311,-7C246,8 180,30 115,59z"
   id="glyph5836" />
<glyph
   unicode="t"
   horiz-adv-x="823"
   d="M221,956l-162,0l0,107l162,0l0,330l185,0l0,-330l346,0l0,-107l-346,0l0,-675C406,191 415,133 432,108C449,83 481,70 528,70C576,70 611,84 633,113C655,141 667,187 668,250l139,0C802,153 775,83 728,38C681,-7 609,-29 512,-29C406,-29 331,-5 287,42C243,89 221,168 221,281z"
   id="glyph5838" />
<glyph
   unicode="u"
   horiz-adv-x="1319"
   d="M725,1063l344,0l0,-957l174,0l0,-106l-358,0l0,188C851,117 807,64 753,27C699,-10 636,-29 565,-29C447,-29 360,5 305,72C249,139 221,244 221,387l0,569l-166,0l0,107l351,0l0,-619C406,315 422,226 454,178C485,130 542,106 623,106C708,106 773,137 818,200C863,263 885,354 885,473l0,483l-160,0z"
   id="glyph5840" />
<glyph
   unicode="v"
   horiz-adv-x="1157"
   d="M506,0l-391,956l-121,0l0,107l489,0l0,-107l-170,0l299,-731l299,731l-159,0l0,107l399,0l0,-107l-119,0l-391,-956z"
   id="glyph5842" />
<glyph
   unicode="w"
   horiz-adv-x="1753"
   d="M983,1063l272,-830l240,723l-154,0l0,107l385,0l0,-107l-118,0l-316,-956l-153,0l-262,795l-263,-795l-147,0l-315,956l-119,0l0,107l481,0l0,-107l-172,0l238,-723l274,830z"
   id="glyph5844" />
<glyph
   unicode="x"
   horiz-adv-x="1155"
   d="M596,649l223,307l-143,0l0,107l409,0l0,-107l-141,0l-285,-393l332,-457l139,0l0,-106l-491,0l0,106l135,0l-231,318l-232,-318l138,0l0,-106l-404,0l0,106l141,0l293,404l-323,446l-131,0l0,107l475,0l0,-107l-127,0z"
   id="glyph5846" />
<glyph
   unicode="y"
   horiz-adv-x="1157"
   d="M442,-195l70,177l-397,974l-121,0l0,107l489,0l0,-107l-170,0l299,-731l299,731l-159,0l0,107l399,0l0,-107l-119,0l-487,-1196C512,-323 475,-379 434,-409C393,-440 336,-455 262,-455C231,-455 199,-452 166,-447C133,-442 99,-434 66,-424l0,203l94,0C164,-266 176,-299 195,-318C214,-338 243,-348 283,-348C320,-348 349,-338 372,-317C394,-297 417,-256 442,-195z"
   id="glyph5848" />
<glyph
   unicode="z"
   horiz-adv-x="1079"
   d="M82,0l0,86l666,870l-527,0l0,-184l-106,0l0,291l870,0l0,-86l-666,-871l578,0l0,193l107,0l0,-299z"
   id="glyph5850" />
<glyph
   unicode="{"
   horiz-adv-x="1303"
   d="M1047,-229l0,-105l-62,0C819,-334 708,-309 652,-260C595,-211 567,-112 567,35l0,258C567,393 549,462 513,501C477,540 412,559 317,559l-61,0l0,105l61,0C412,664 477,683 513,722C549,761 567,830 567,930l0,258C567,1335 595,1434 652,1483C708,1532 819,1556 985,1556l62,0l0,-104l-68,0C885,1452 824,1437 795,1408C766,1379 752,1317 752,1223l0,-287C752,831 735,755 702,710C669,665 609,632 522,612C610,589 670,556 703,511C736,466 752,392 752,287l0,-287C752,-94 766,-156 795,-185C824,-214 885,-229 979,-229z"
   id="glyph5852" />
<glyph
   unicode="|"
   horiz-adv-x="690"
   d="M426,1565l0,-2048l-162,0l0,2048z"
   id="glyph5854" />
<glyph
   unicode="}"
   horiz-adv-x="1303"
   d="M256,-229l70,0C419,-229 480,-214 509,-185C537,-156 551,-95 551,0l0,287C551,392 567,466 600,511C633,556 693,589 780,612C693,632 634,665 601,710C568,755 551,831 551,936l0,287C551,1318 537,1380 509,1409C480,1438 419,1452 326,1452l-70,0l0,104l63,0C485,1556 596,1532 652,1483C707,1434 735,1335 735,1188l0,-258C735,830 753,761 789,722C825,683 890,664 985,664l62,0l0,-105l-62,0C890,559 825,540 789,501C753,462 735,393 735,293l0,-258C735,-112 707,-211 652,-260C596,-309 485,-334 319,-334l-63,0z"
   id="glyph5856" />
<glyph
   unicode="~"
   horiz-adv-x="1716"
   d="M1499,807l0,-148C1432,600 1369,557 1309,529C1249,501 1188,487 1126,487C1062,487 972,509 856,553l-10,4C839,560 828,564 813,570C715,608 634,627 571,627C510,627 450,615 393,591C335,566 276,528 217,477l0,152C284,687 347,730 407,757C466,784 527,797 590,797C654,797 744,775 860,731l10,-4C877,724 888,720 901,715C998,676 1078,657 1143,657C1204,657 1264,669 1323,694C1382,719 1440,756 1499,807z"
   id="glyph5858" />
<glyph
   unicode=" "
   horiz-adv-x="651"
   id="glyph5860" />
<glyph
   unicode="¡"
   horiz-adv-x="823"
   d="M279,1016C279,1053 292,1085 317,1111C342,1136 374,1149 412,1149C449,1149 480,1136 506,1110C532,1084 545,1053 545,1016C545,979 532,947 506,921C480,895 449,882 412,882C374,882 342,895 317,921C292,947 279,979 279,1016M283,-373l67,821l0,252l123,0l0,-252l68,-821z"
   id="glyph5862" />
<glyph
   unicode="¢"
   horiz-adv-x="1303"
   d="M629,991C543,981 479,938 436,861C393,784 371,675 371,532C371,389 393,279 436,202C479,125 543,82 629,72M1104,319C1081,216 1038,136 975,79C912,21 830,-14 729,-27l0,-270l-100,0l0,270C482,-14 367,42 282,142C197,242 154,372 154,532C154,693 197,824 282,924C367,1023 482,1079 629,1090l0,266l100,0l0,-266C790,1085 849,1074 905,1059C961,1044 1016,1023 1069,997l0,-272l-106,0C950,807 925,870 887,914C848,957 796,983 729,991l0,-919C789,80 838,105 877,148C916,190 942,247 956,319z"
   id="glyph5864" />
<glyph
   unicode="£"
   horiz-adv-x="1303"
   d="M1102,1225l-105,0C990,1288 968,1337 931,1371C893,1404 842,1421 778,1421C693,1421 631,1395 591,1344C550,1292 530,1211 530,1102l0,-295l412,0l0,-107l-412,0l0,-579l478,0l0,227l116,0l0,-348l-987,0l0,106l193,0l0,594l-193,0l0,107l193,0l0,295C330,1239 368,1343 445,1414C521,1485 633,1520 780,1520C837,1520 892,1516 946,1508C1000,1499 1052,1487 1102,1470z"
   id="glyph5866" />
<glyph
   unicode="¥"
   horiz-adv-x="1303"
   d="M360,0l0,106l191,0l0,367l-404,0l0,105l404,0l0,65l-82,141l-322,0l0,105l263,0l-287,497l-139,0l0,107l553,0l0,-107l-175,0l343,-604l339,604l-167,0l0,107l432,0l0,-107l-142,0l-284,-497l272,0l0,-105l-332,0l-71,-122l0,-84l403,0l0,-105l-403,0l0,-367l190,0l0,-106z"
   id="glyph5868" />
<glyph
   unicode="¦"
   horiz-adv-x="690"
   d="M426,408l0,-758l-162,0l0,758M426,1432l0,-758l-162,0l0,758z"
   id="glyph5870" />
<glyph
   unicode="©"
   horiz-adv-x="2048"
   d="M1376,573C1358,486 1319,419 1259,372C1198,325 1121,301 1026,301C901,301 802,341 728,421C653,501 616,608 616,741C616,875 654,982 729,1063C804,1144 903,1184 1026,1184C1079,1184 1132,1178 1184,1166C1235,1153 1290,1134 1348,1108l0,-213l-84,0C1253,968 1228,1021 1190,1055C1152,1089 1098,1106 1028,1106C949,1106 889,1076 849,1015C808,954 788,862 788,741C788,620 808,530 848,470C888,409 947,379 1026,379C1091,379 1142,395 1180,427C1217,458 1243,507 1257,573M1024,1485C1125,1485 1220,1467 1308,1430C1395,1393 1475,1339 1548,1266C1621,1193 1675,1113 1711,1026C1747,939 1765,844 1765,741C1765,640 1747,546 1711,459C1675,372 1621,292 1548,219C1475,146 1395,92 1308,55C1220,18 1125,0 1024,0C923,0 828,18 741,55C653,92 573,146 500,219C427,292 373,372 337,459C301,546 283,640 283,741C283,844 301,939 337,1026C373,1113 427,1193 500,1266C573,1339 653,1393 741,1430C828,1467 923,1485 1024,1485M1024,1382C937,1382 855,1366 780,1335C705,1304 636,1257 573,1194C511,1132 464,1063 433,987C401,910 385,828 385,741C385,654 401,573 433,498C464,423 511,354 573,291C636,228 705,181 780,150C855,118 937,102 1024,102C1112,102 1194,118 1270,150C1345,181 1414,228 1477,291C1539,353 1586,422 1617,497C1648,572 1663,654 1663,741C1663,830 1647,912 1616,988C1585,1063 1538,1132 1477,1194C1414,1257 1345,1304 1270,1335C1194,1366 1112,1382 1024,1382z"
   id="glyph5872" />
<glyph
   unicode="«"
   horiz-adv-x="1253"
   d="M1061,1059l0,-115l-297,-344l297,-344l0,-115l-469,418l0,82M627,1059l0,-115l-297,-344l297,-344l0,-115l-469,418l0,82z"
   id="glyph5874" />
<glyph
   unicode="­"
   horiz-adv-x="692"
   d="M90,627l512,0l0,-156l-512,0z"
   id="glyph5876" />
<glyph
   unicode="®"
   horiz-adv-x="2048"
   d="M895,791l125,0C1075,791 1117,804 1145,829C1172,854 1186,892 1186,942C1186,991 1172,1029 1144,1054C1116,1079 1075,1092 1020,1092l-125,0M1141,754C1169,745 1193,732 1213,715C1232,698 1249,676 1262,649l116,-229l76,0l0,-68l-190,0l-131,254C1110,653 1088,684 1067,700C1046,715 1020,723 987,723l-92,0l0,-303l84,0l0,-68l-317,0l0,68l83,0l0,672l-83,0l0,67l415,0C1162,1159 1227,1140 1270,1103C1313,1066 1335,1011 1335,938C1335,883 1319,840 1287,810C1255,779 1206,761 1141,754M1024,1382C937,1382 855,1366 780,1335C705,1304 636,1257 573,1194C511,1132 464,1063 433,987C401,910 385,828 385,741C385,654 401,573 433,498C464,423 511,354 573,291C636,228 705,181 780,150C855,118 937,102 1024,102C1112,102 1194,118 1270,150C1345,181 1414,228 1477,291C1539,353 1586,422 1617,497C1648,572 1663,654 1663,741C1663,830 1647,912 1616,988C1585,1063 1538,1132 1477,1194C1414,1257 1345,1304 1270,1335C1194,1366 1112,1382 1024,1382M1024,1485C1125,1485 1220,1467 1308,1430C1395,1393 1475,1339 1548,1266C1621,1193 1675,1113 1711,1026C1747,939 1765,844 1765,741C1765,640 1747,546 1711,459C1675,372 1621,292 1548,219C1475,146 1395,92 1308,55C1220,18 1125,0 1024,0C923,0 828,18 741,55C653,92 573,146 500,219C427,292 373,372 337,459C301,546 283,640 283,741C283,844 301,939 337,1026C373,1113 427,1193 500,1266C573,1339 653,1393 741,1430C828,1467 923,1485 1024,1485z"
   id="glyph5878" />
<glyph
   unicode="°"
   horiz-adv-x="1024"
   d="M512,1382C461,1382 419,1365 384,1330C349,1295 332,1251 332,1200C332,1149 349,1107 384,1073C418,1039 461,1022 512,1022C563,1022 605,1039 640,1074C675,1108 692,1150 692,1200C692,1250 674,1293 639,1329C604,1364 561,1382 512,1382M512,1520C555,1520 596,1512 635,1496C674,1479 708,1456 737,1425C768,1395 791,1361 806,1323C821,1285 829,1244 829,1200C829,1112 798,1038 737,977C675,916 599,885 510,885C420,885 345,915 285,975C225,1035 195,1110 195,1200C195,1289 226,1365 287,1427C348,1489 423,1520 512,1520z"
   id="glyph5880" />
<glyph
   unicode="±"
   horiz-adv-x="1716"
   d="M938,1284l0,-391l561,0l0,-162l-561,0l0,-391l-160,0l0,391l-561,0l0,162l561,0l0,391M217,160l1282,0l0,-160l-1282,0z"
   id="glyph5882" />
<glyph
   unicode="²"
   horiz-adv-x="821"
   d="M170,1296l-70,0l0,158C144,1475 189,1492 236,1503C283,1514 329,1520 375,1520C467,1520 542,1498 599,1454C656,1410 684,1353 684,1284C684,1203 619,1104 490,988l-19,-17l-238,-215l385,0l0,108l74,0l0,-196l-602,0l0,75l285,254C432,1048 473,1094 498,1135C523,1176 535,1218 535,1262C535,1319 519,1364 487,1397C454,1430 410,1446 354,1446C302,1446 260,1433 229,1408C198,1383 178,1345 170,1296z"
   id="glyph5884" />
<glyph
   unicode="³"
   horiz-adv-x="821"
   d="M125,1468C174,1485 220,1498 265,1507C310,1516 352,1520 391,1520C483,1520 554,1502 604,1466C653,1430 678,1379 678,1313C678,1265 660,1224 625,1191C590,1158 540,1135 477,1124C556,1113 616,1088 657,1049C697,1009 717,956 717,889C717,813 688,755 630,714C571,673 488,653 379,653C331,653 284,658 238,667C191,676 145,690 100,709l0,170l70,-1C173,829 191,791 224,766C257,740 304,727 365,727C428,727 476,742 510,771C544,800 561,842 561,897C561,959 544,1006 510,1038C476,1069 425,1085 358,1085l-53,0l0,74l27,0C397,1159 446,1171 479,1196C512,1221 528,1258 528,1307C528,1352 515,1386 488,1410C461,1434 422,1446 371,1446C316,1446 275,1435 246,1414C217,1393 200,1360 195,1317l-70,0z"
   id="glyph5886" />
<glyph
   unicode="´"
   horiz-adv-x="1024"
   d="M651,1638l199,0l-340,-376l-117,0z"
   id="glyph5888" />
<glyph
   unicode="µ"
   horiz-adv-x="1331"
   d="M739,1063l344,0l0,-959l174,0l0,-104l-358,0l0,188C864,117 823,64 774,27C725,-10 670,-29 610,-29C572,-29 537,-23 506,-11C475,1 446,19 420,43l0,-362l174,0l0,-107l-535,0l0,107l177,0l0,1275l-166,0l0,107l350,0l0,-619C420,315 436,226 468,178C500,130 556,106 637,106C722,106 787,137 832,200C877,263 899,354 899,473l0,483l-160,0z"
   id="glyph5890" />
<glyph
   unicode="¶"
   horiz-adv-x="1303"
   d="M633,1493l538,0l0,-107l-118,0l0,-1583l-107,0l0,1583l-231,0l0,-1583l-107,0l0,846C465,660 354,703 276,777C197,850 158,948 158,1071C158,1198 201,1300 288,1377C375,1454 490,1493 633,1493z"
   id="glyph5892" />
<glyph
   unicode="·"
   horiz-adv-x="651"
   d="M190,711C190,748 203,780 229,806C254,831 286,844 324,844C361,844 392,831 418,805C444,779 457,748 457,711C457,674 444,642 418,617C392,591 361,578 324,578C286,578 254,591 229,616C203,641 190,673 190,711z"
   id="glyph5894" />
<glyph
   unicode="¹"
   horiz-adv-x="821"
   d="M176,668l0,84l172,0l0,634l-201,-106l0,94l240,129l102,0l0,-751l173,0l0,-84z"
   id="glyph5896" />
<glyph
   unicode="»"
   horiz-adv-x="1253"
   d="M627,1059l469,-418l0,-82l-469,-418l0,115l297,344l-297,344M193,1059l469,-418l0,-82l-469,-418l0,115l296,344l-296,344z"
   id="glyph5898" />
<glyph
   unicode="¼"
   horiz-adv-x="1985"
   d="M1614,303l0,407l-308,-407M1902,0l-434,0l0,84l146,0l0,137l-398,0l0,84l400,530l141,0l0,-532l164,0l0,-82l-164,0l0,-137l145,0M176,668l0,84l172,0l0,634l-201,-106l0,94l240,129l102,0l0,-751l173,0l0,-84M1388,1520l150,0l-942,-1549l-150,0z"
   id="glyph5900" />
<glyph
   unicode="½"
   horiz-adv-x="1985"
   d="M176,668l0,84l172,0l0,634l-201,-106l0,94l240,129l102,0l0,-751l173,0l0,-84M1388,1520l150,0l-942,-1549l-150,0M1333,628l-70,0l0,158C1307,807 1352,824 1399,835C1446,846 1492,852 1538,852C1630,852 1705,830 1762,786C1819,742 1847,685 1847,616C1847,535 1782,436 1653,320l-19,-17l-238,-215l385,0l0,108l74,0l0,-196l-602,0l0,75l285,254C1595,380 1636,426 1661,467C1686,508 1698,550 1698,594C1698,651 1682,696 1650,729C1617,762 1573,778 1517,778C1465,778 1423,765 1392,740C1361,715 1341,677 1333,628z"
   id="glyph5902" />
<glyph
   unicode="¾"
   horiz-adv-x="1985"
   d="M1614,303l0,407l-308,-407M1902,0l-434,0l0,84l146,0l0,137l-398,0l0,84l400,530l141,0l0,-532l164,0l0,-82l-164,0l0,-137l145,0M125,1468C174,1485 220,1498 265,1507C310,1516 352,1520 391,1520C483,1520 554,1502 604,1466C653,1430 678,1379 678,1313C678,1265 660,1224 625,1191C590,1158 540,1135 477,1124C556,1113 616,1088 657,1049C697,1009 717,956 717,889C717,813 688,755 630,714C571,673 488,653 379,653C331,653 284,658 238,667C191,676 145,690 100,709l0,170l70,-1C173,829 191,791 224,766C257,740 304,727 365,727C428,727 476,742 510,771C544,800 561,842 561,897C561,959 544,1006 510,1038C476,1069 425,1085 358,1085l-53,0l0,74l27,0C397,1159 446,1171 479,1196C512,1221 528,1258 528,1307C528,1352 515,1386 488,1410C461,1434 422,1446 371,1446C316,1446 275,1435 246,1414C217,1393 200,1360 195,1317l-70,0M1388,1520l150,0l-942,-1549l-150,0z"
   id="glyph5904" />
<glyph
   unicode="¿"
   horiz-adv-x="1098"
   d="M778,1016C778,979 765,947 740,921C714,895 682,882 645,882C608,882 577,895 551,921C525,947 512,979 512,1016C512,1053 525,1084 551,1110C577,1136 608,1149 645,1149C683,1149 715,1136 740,1111C765,1085 778,1053 778,1016M999,-307C928,-338 861,-362 798,-377C735,-392 675,-400 618,-400C471,-400 354,-364 268,-293C182,-222 139,-125 139,-4C139,120 176,221 250,300C324,379 435,435 584,469l0,254l123,0l0,-328C589,366 500,318 440,251C380,184 350,98 350,-6C350,-97 375,-169 424,-222C473,-275 539,-301 623,-301C698,-301 760,-279 809,-235C858,-192 889,-129 903,-47l96,0z"
   id="glyph5906" />
<glyph
   unicode="À"
   horiz-adv-x="1479"
   d="M410,541l548,0l-274,710M-12,0l0,106l131,0l532,1387l168,0l533,-1387l147,0l0,-106l-543,0l0,106l166,0l-125,328l-628,0l-125,-328l164,0l0,-106M669,1899l183,-264l-117,0l-262,264z"
   id="glyph5908" />
<glyph
   unicode="Á"
   horiz-adv-x="1479"
   d="M410,541l548,0l-274,710M-12,0l0,106l131,0l532,1387l168,0l533,-1387l147,0l0,-106l-543,0l0,106l166,0l-125,328l-628,0l-125,-328l164,0l0,-106M802,1899l197,0l-262,-264l-117,0z"
   id="glyph5910" />
<glyph
   unicode="Â"
   horiz-adv-x="1479"
   d="M410,541l548,0l-274,710M-12,0l0,106l131,0l532,1387l168,0l533,-1387l147,0l0,-106l-543,0l0,106l166,0l-125,328l-628,0l-125,-328l164,0l0,-106M651,1899l176,0l231,-264l-116,0l-203,161l-203,-161l-116,0z"
   id="glyph5912" />
<glyph
   unicode="Ã"
   horiz-adv-x="1479"
   d="M410,541l548,0l-274,710M-12,0l0,106l131,0l532,1387l168,0l533,-1387l147,0l0,-106l-543,0l0,106l166,0l-125,328l-628,0l-125,-328l164,0l0,-106M726,1715l-48,28C665,1752 651,1758 638,1763C624,1768 611,1770 600,1770C574,1770 552,1761 535,1742C518,1723 508,1698 505,1667l-96,1C410,1735 428,1788 462,1827C496,1866 541,1886 598,1886C622,1886 644,1883 665,1877C686,1871 714,1858 751,1837l49,-26C815,1802 830,1796 845,1791C860,1786 873,1784 884,1784C911,1784 933,1793 949,1812C964,1830 972,1855 972,1886l97,0C1068,1816 1050,1762 1016,1724C981,1686 933,1667 870,1667C825,1667 779,1682 731,1712z"
   id="glyph5914" />
<glyph
   unicode="Ä"
   horiz-adv-x="1479"
   d="M410,541l548,0l-274,710M-12,0l0,106l131,0l532,1387l168,0l533,-1387l147,0l0,-106l-543,0l0,106l166,0l-125,328l-628,0l-125,-328l164,0l0,-106M544,1884C576,1884 604,1872 627,1849C650,1826 661,1799 661,1768C661,1735 650,1707 628,1685C605,1662 577,1651 544,1651C511,1651 484,1662 462,1685C439,1707 428,1735 428,1768C428,1799 440,1826 463,1849C486,1872 513,1884 544,1884M934,1884C965,1884 993,1872 1016,1849C1039,1826 1050,1799 1050,1768C1050,1735 1039,1707 1017,1685C994,1662 967,1651 934,1651C901,1651 873,1662 851,1685C828,1707 817,1735 817,1768C817,1799 829,1826 852,1849C875,1872 902,1884 934,1884z"
   id="glyph5916" />
<glyph
   unicode="Å"
   horiz-adv-x="1479"
   d="M887,1626C887,1668 872,1704 843,1734C813,1763 777,1778 735,1778C692,1778 657,1764 628,1735C599,1706 584,1669 584,1626C584,1584 599,1548 628,1519C657,1490 692,1475 735,1475C777,1475 813,1490 843,1519C872,1548 887,1584 887,1626M410,541l546,0l-272,710M-12,0l0,106l131,0l489,1278C560,1409 524,1441 499,1482C474,1523 461,1571 461,1626C461,1702 488,1767 541,1821C594,1874 659,1901 735,1901C811,1901 876,1874 930,1821C983,1767 1010,1702 1010,1626C1010,1573 997,1525 971,1483C945,1440 908,1407 860,1384l492,-1278l147,0l0,-106l-543,0l0,106l166,0l-125,328l-628,0l-125,-328l164,0l0,-106z"
   id="glyph5918" />
<glyph
   unicode="Æ"
   horiz-adv-x="2050"
   d="M426,541l489,0l0,845l-100,0M725,0l0,106l190,0l0,328l-538,0l-152,-328l164,0l0,-106l-424,0l0,106l131,0l590,1280l-215,0l0,107l1456,0l0,-332l-123,0l0,209l-688,0l0,-500l492,0l0,187l123,0l0,-496l-123,0l0,187l-492,0l0,-625l705,0l0,209l123,0l0,-332z"
   id="glyph5920" />
<glyph
   unicode="Ç"
   horiz-adv-x="1567"
   d="M1444,395C1400,256 1326,150 1223,79C1119,7 988,-29 829,-29C732,-29 641,-12 558,21C475,54 401,103 336,168C261,243 206,328 170,423C133,518 115,625 115,745C115,977 182,1164 316,1307C450,1449 627,1520 846,1520C927,1520 1014,1509 1106,1488C1198,1467 1297,1434 1403,1391l0,-344l-113,0C1265,1172 1216,1265 1142,1324C1067,1383 963,1413 829,1413C670,1413 549,1357 467,1244C385,1131 344,964 344,745C344,526 385,361 467,248C549,135 670,78 829,78C940,78 1032,105 1104,158C1176,211 1228,290 1260,395M910,0C953,-43 985,-83 1006,-120C1027,-157 1037,-192 1037,-225C1037,-279 1016,-321 974,-350C932,-380 874,-395 799,-395C771,-395 742,-393 713,-389C684,-385 654,-379 623,-371l0,131C650,-251 677,-260 704,-265C730,-271 755,-274 778,-274C816,-274 846,-265 868,-247C890,-230 901,-206 901,-176C901,-157 894,-133 879,-104C864,-75 842,-40 813,0z"
   id="glyph5922" />
<glyph
   unicode="È"
   horiz-adv-x="1495"
   d="M113,0l0,106l190,0l0,1280l-190,0l0,107l1202,0l0,-332l-123,0l0,209l-686,0l0,-500l489,0l0,187l123,0l0,-496l-123,0l0,187l-489,0l0,-625l702,0l0,209l123,0l0,-332M678,1899l183,-264l-117,0l-262,264z"
   id="glyph5924" />
<glyph
   unicode="É"
   horiz-adv-x="1495"
   d="M113,0l0,106l190,0l0,1280l-190,0l0,107l1202,0l0,-332l-123,0l0,209l-686,0l0,-500l489,0l0,187l123,0l0,-496l-123,0l0,187l-489,0l0,-625l702,0l0,209l123,0l0,-332M811,1899l197,0l-262,-264l-117,0z"
   id="glyph5926" />
<glyph
   unicode="Ê"
   horiz-adv-x="1495"
   d="M113,0l0,106l190,0l0,1280l-190,0l0,107l1202,0l0,-332l-123,0l0,209l-686,0l0,-500l489,0l0,187l123,0l0,-496l-123,0l0,187l-489,0l0,-625l702,0l0,209l123,0l0,-332M660,1899l176,0l231,-264l-116,0l-203,161l-203,-161l-116,0z"
   id="glyph5928" />
<glyph
   unicode="Ë"
   horiz-adv-x="1495"
   d="M113,0l0,106l190,0l0,1280l-190,0l0,107l1202,0l0,-332l-123,0l0,209l-686,0l0,-500l489,0l0,187l123,0l0,-496l-123,0l0,187l-489,0l0,-625l702,0l0,209l123,0l0,-332M553,1884C585,1884 613,1872 636,1849C659,1826 670,1799 670,1768C670,1735 659,1707 637,1685C614,1662 586,1651 553,1651C520,1651 493,1662 471,1685C448,1707 437,1735 437,1768C437,1799 449,1826 472,1849C495,1872 522,1884 553,1884M943,1884C974,1884 1002,1872 1025,1849C1048,1826 1059,1799 1059,1768C1059,1735 1048,1707 1026,1685C1003,1662 976,1651 943,1651C910,1651 882,1662 860,1685C837,1707 826,1735 826,1768C826,1799 838,1826 861,1849C884,1872 911,1884 943,1884z"
   id="glyph5930" />
<glyph
   unicode="Ì"
   horiz-adv-x="809"
   d="M506,106l190,0l0,-106l-583,0l0,106l190,0l0,1280l-190,0l0,107l583,0l0,-107l-190,0M336,1899l183,-264l-117,0l-262,264z"
   id="glyph5932" />
<glyph
   unicode="Í"
   horiz-adv-x="809"
   d="M506,106l190,0l0,-106l-583,0l0,106l190,0l0,1280l-190,0l0,107l583,0l0,-107l-190,0M469,1899l197,0l-262,-264l-117,0z"
   id="glyph5934" />
<glyph
   unicode="Î"
   horiz-adv-x="809"
   d="M506,106l190,0l0,-106l-583,0l0,106l190,0l0,1280l-190,0l0,107l583,0l0,-107l-190,0M318,1899l176,0l231,-264l-116,0l-203,161l-203,-161l-116,0z"
   id="glyph5936" />
<glyph
   unicode="Ï"
   horiz-adv-x="809"
   d="M506,106l190,0l0,-106l-583,0l0,106l190,0l0,1280l-190,0l0,107l583,0l0,-107l-190,0M211,1884C243,1884 271,1872 294,1849C317,1826 328,1799 328,1768C328,1735 317,1707 295,1685C272,1662 244,1651 211,1651C178,1651 151,1662 129,1685C106,1707 95,1735 95,1768C95,1799 107,1826 130,1849C153,1872 180,1884 211,1884M601,1884C632,1884 660,1872 683,1849C706,1826 717,1799 717,1768C717,1735 706,1707 684,1685C661,1662 634,1651 601,1651C568,1651 540,1662 518,1685C495,1707 484,1735 484,1768C484,1799 496,1826 519,1849C542,1872 569,1884 601,1884z"
   id="glyph5938" />
<glyph
   unicode="Ð"
   horiz-adv-x="1653"
   d="M514,106l188,0C896,106 1045,161 1149,272C1253,383 1305,541 1305,748C1305,955 1253,1113 1150,1222C1046,1331 897,1386 702,1386l-188,0l0,-542l336,0l0,-125l-336,0M123,0l0,106l190,0l0,613l-200,0l0,125l200,0l0,542l-190,0l0,107l594,0C974,1493 1175,1427 1319,1296C1462,1165 1534,982 1534,748C1534,513 1462,330 1318,198C1174,66 974,0 717,0z"
   id="glyph5940" />
<glyph
   unicode="Ñ"
   horiz-adv-x="1792"
   d="M100,0l0,106l201,0l0,1280l-201,0l0,107l383,0l895,-1178l0,1071l-200,0l0,107l524,0l0,-107l-201,0l0,-1415l-121,0l-956,1258l0,-1123l201,0l0,-106M884,1715l-48,28C823,1752 809,1758 796,1763C782,1768 769,1770 758,1770C732,1770 710,1761 693,1742C676,1723 666,1698 663,1667l-96,1C568,1735 586,1788 620,1827C654,1866 699,1886 756,1886C780,1886 802,1883 823,1877C844,1871 872,1858 909,1837l49,-26C973,1802 988,1796 1003,1791C1018,1786 1031,1784 1042,1784C1069,1784 1091,1793 1107,1812C1122,1830 1130,1855 1130,1886l97,0C1226,1816 1208,1762 1174,1724C1139,1686 1091,1667 1028,1667C983,1667 937,1682 889,1712z"
   id="glyph5942" />
<glyph
   unicode="Ò"
   horiz-adv-x="1679"
   d="M840,78C1003,78 1127,134 1210,247C1293,359 1335,525 1335,745C1335,966 1293,1132 1210,1245C1127,1357 1003,1413 840,1413C676,1413 552,1357 469,1245C386,1132 344,966 344,745C344,525 386,359 469,247C552,134 676,78 840,78M840,-29C739,-29 646,-12 561,21C476,54 401,103 336,168C261,243 206,327 170,422C133,517 115,624 115,745C115,866 133,974 170,1069C206,1164 261,1248 336,1323C401,1388 476,1438 560,1471C644,1504 737,1520 840,1520C1057,1520 1232,1449 1365,1307C1498,1165 1565,978 1565,745C1565,626 1547,518 1510,423C1473,327 1418,242 1343,168C1278,103 1203,54 1119,21C1035,-12 942,-29 840,-29M770,1899l183,-264l-117,0l-262,264z"
   id="glyph5944" />
<glyph
   unicode="Ó"
   horiz-adv-x="1679"
   d="M840,78C1003,78 1127,134 1210,247C1293,359 1335,525 1335,745C1335,966 1293,1132 1210,1245C1127,1357 1003,1413 840,1413C676,1413 552,1357 469,1245C386,1132 344,966 344,745C344,525 386,359 469,247C552,134 676,78 840,78M840,-29C739,-29 646,-12 561,21C476,54 401,103 336,168C261,243 206,327 170,422C133,517 115,624 115,745C115,866 133,974 170,1069C206,1164 261,1248 336,1323C401,1388 476,1438 560,1471C644,1504 737,1520 840,1520C1057,1520 1232,1449 1365,1307C1498,1165 1565,978 1565,745C1565,626 1547,518 1510,423C1473,327 1418,242 1343,168C1278,103 1203,54 1119,21C1035,-12 942,-29 840,-29M903,1899l197,0l-262,-264l-117,0z"
   id="glyph5946" />
<glyph
   unicode="Ô"
   horiz-adv-x="1679"
   d="M840,78C1003,78 1127,134 1210,247C1293,359 1335,525 1335,745C1335,966 1293,1132 1210,1245C1127,1357 1003,1413 840,1413C676,1413 552,1357 469,1245C386,1132 344,966 344,745C344,525 386,359 469,247C552,134 676,78 840,78M840,-29C739,-29 646,-12 561,21C476,54 401,103 336,168C261,243 206,327 170,422C133,517 115,624 115,745C115,866 133,974 170,1069C206,1164 261,1248 336,1323C401,1388 476,1438 560,1471C644,1504 737,1520 840,1520C1057,1520 1232,1449 1365,1307C1498,1165 1565,978 1565,745C1565,626 1547,518 1510,423C1473,327 1418,242 1343,168C1278,103 1203,54 1119,21C1035,-12 942,-29 840,-29M752,1899l176,0l231,-264l-116,0l-203,161l-203,-161l-116,0z"
   id="glyph5948" />
<glyph
   unicode="Õ"
   horiz-adv-x="1679"
   d="M840,78C1003,78 1127,134 1210,247C1293,359 1335,525 1335,745C1335,966 1293,1132 1210,1245C1127,1357 1003,1413 840,1413C676,1413 552,1357 469,1245C386,1132 344,966 344,745C344,525 386,359 469,247C552,134 676,78 840,78M840,-29C739,-29 646,-12 561,21C476,54 401,103 336,168C261,243 206,327 170,422C133,517 115,624 115,745C115,866 133,974 170,1069C206,1164 261,1248 336,1323C401,1388 476,1438 560,1471C644,1504 737,1520 840,1520C1057,1520 1232,1449 1365,1307C1498,1165 1565,978 1565,745C1565,626 1547,518 1510,423C1473,327 1418,242 1343,168C1278,103 1203,54 1119,21C1035,-12 942,-29 840,-29M827,1715l-48,28C766,1752 752,1758 739,1763C725,1768 712,1770 701,1770C675,1770 653,1761 636,1742C619,1723 609,1698 606,1667l-96,1C511,1735 529,1788 563,1827C597,1866 642,1886 699,1886C723,1886 745,1883 766,1877C787,1871 815,1858 852,1837l49,-26C916,1802 931,1796 946,1791C961,1786 974,1784 985,1784C1012,1784 1034,1793 1050,1812C1065,1830 1073,1855 1073,1886l97,0C1169,1816 1151,1762 1117,1724C1082,1686 1034,1667 971,1667C926,1667 880,1682 832,1712z"
   id="glyph5950" />
<glyph
   unicode="Ö"
   horiz-adv-x="1679"
   d="M840,78C1003,78 1127,134 1210,247C1293,359 1335,525 1335,745C1335,966 1293,1132 1210,1245C1127,1357 1003,1413 840,1413C676,1413 552,1357 469,1245C386,1132 344,966 344,745C344,525 386,359 469,247C552,134 676,78 840,78M840,-29C739,-29 646,-12 561,21C476,54 401,103 336,168C261,243 206,327 170,422C133,517 115,624 115,745C115,866 133,974 170,1069C206,1164 261,1248 336,1323C401,1388 476,1438 560,1471C644,1504 737,1520 840,1520C1057,1520 1232,1449 1365,1307C1498,1165 1565,978 1565,745C1565,626 1547,518 1510,423C1473,327 1418,242 1343,168C1278,103 1203,54 1119,21C1035,-12 942,-29 840,-29M645,1884C677,1884 705,1872 728,1849C751,1826 762,1799 762,1768C762,1735 751,1707 729,1685C706,1662 678,1651 645,1651C612,1651 585,1662 563,1685C540,1707 529,1735 529,1768C529,1799 541,1826 564,1849C587,1872 614,1884 645,1884M1035,1884C1066,1884 1094,1872 1117,1849C1140,1826 1151,1799 1151,1768C1151,1735 1140,1707 1118,1685C1095,1662 1068,1651 1035,1651C1002,1651 974,1662 952,1685C929,1707 918,1735 918,1768C918,1799 930,1826 953,1849C976,1872 1003,1884 1035,1884z"
   id="glyph5952" />
<glyph
   unicode="×"
   horiz-adv-x="1716"
   d="M1434,1104l-463,-463l463,-461l-115,-112l-461,460l-461,-460l-114,112l460,461l-460,463l114,113l461,-461l461,461z"
   id="glyph5954" />
<glyph
   unicode="Ø"
   horiz-adv-x="1679"
   d="M1214,1239C1171,1298 1118,1341 1057,1370C995,1399 923,1413 840,1413C676,1413 552,1357 469,1245C386,1132 344,966 344,745C344,666 349,594 360,530C371,465 387,406 410,352M463,256C506,197 558,152 621,123C684,93 757,78 840,78C1003,78 1127,134 1210,247C1293,359 1335,525 1335,745C1335,823 1330,895 1319,961C1308,1026 1291,1086 1268,1141M1391,1276C1449,1204 1493,1124 1522,1037C1551,949 1565,852 1565,745C1565,515 1498,329 1365,186C1231,43 1056,-29 840,-29C746,-29 659,-15 580,14C501,43 427,86 360,143l-182,-200l-78,69l187,207C229,289 186,368 158,455C129,542 115,638 115,745C115,976 182,1163 316,1306C450,1449 625,1520 840,1520C934,1520 1021,1506 1101,1478C1181,1449 1253,1407 1317,1352l178,198l80,-71z"
   id="glyph5956" />
<glyph
   unicode="Ù"
   horiz-adv-x="1726"
   d="M287,1386l-191,0l0,107l584,0l0,-107l-191,0l0,-772C489,423 520,290 583,215C645,140 752,102 905,102C1058,102 1165,140 1228,215C1290,290 1321,423 1321,614l0,772l-191,0l0,107l504,0l0,-107l-190,0l0,-792C1444,367 1400,206 1313,112C1226,18 1077,-29 868,-29C659,-29 510,18 421,113C332,208 287,368 287,594M833,1899l183,-264l-117,0l-262,264z"
   id="glyph5958" />
<glyph
   unicode="Ú"
   horiz-adv-x="1726"
   d="M287,1386l-191,0l0,107l584,0l0,-107l-191,0l0,-772C489,423 520,290 583,215C645,140 752,102 905,102C1058,102 1165,140 1228,215C1290,290 1321,423 1321,614l0,772l-191,0l0,107l504,0l0,-107l-190,0l0,-792C1444,367 1400,206 1313,112C1226,18 1077,-29 868,-29C659,-29 510,18 421,113C332,208 287,368 287,594M966,1899l197,0l-262,-264l-117,0z"
   id="glyph5960" />
<glyph
   unicode="Û"
   horiz-adv-x="1726"
   d="M287,1386l-191,0l0,107l584,0l0,-107l-191,0l0,-772C489,423 520,290 583,215C645,140 752,102 905,102C1058,102 1165,140 1228,215C1290,290 1321,423 1321,614l0,772l-191,0l0,107l504,0l0,-107l-190,0l0,-792C1444,367 1400,206 1313,112C1226,18 1077,-29 868,-29C659,-29 510,18 421,113C332,208 287,368 287,594M815,1899l176,0l231,-264l-116,0l-203,161l-203,-161l-116,0z"
   id="glyph5962" />
<glyph
   unicode="Ü"
   horiz-adv-x="1726"
   d="M287,1386l-191,0l0,107l584,0l0,-107l-191,0l0,-772C489,423 520,290 583,215C645,140 752,102 905,102C1058,102 1165,140 1228,215C1290,290 1321,423 1321,614l0,772l-191,0l0,107l504,0l0,-107l-190,0l0,-792C1444,367 1400,206 1313,112C1226,18 1077,-29 868,-29C659,-29 510,18 421,113C332,208 287,368 287,594M708,1884C740,1884 768,1872 791,1849C814,1826 825,1799 825,1768C825,1735 814,1707 792,1685C769,1662 741,1651 708,1651C675,1651 648,1662 626,1685C603,1707 592,1735 592,1768C592,1799 604,1826 627,1849C650,1872 677,1884 708,1884M1098,1884C1129,1884 1157,1872 1180,1849C1203,1826 1214,1799 1214,1768C1214,1735 1203,1707 1181,1685C1158,1662 1131,1651 1098,1651C1065,1651 1037,1662 1015,1685C992,1707 981,1735 981,1768C981,1799 993,1826 1016,1849C1039,1872 1066,1884 1098,1884z"
   id="glyph5964" />
<glyph
   unicode="Ý"
   horiz-adv-x="1352"
   d="M387,0l0,106l191,0l0,537l-461,743l-140,0l0,107l555,0l0,-107l-174,0l373,-604l373,604l-168,0l0,107l434,0l0,-107l-141,0l-449,-724l0,-556l191,0l0,-106M739,1899l197,0l-262,-264l-117,0z"
   id="glyph5966" />
<glyph
   unicode="Þ"
   horiz-adv-x="1384"
   d="M506,434l264,0C869,434 945,461 997,515C1049,568 1075,646 1075,748C1075,849 1049,927 997,981C945,1034 869,1061 770,1061l-264,0M113,0l0,106l190,0l0,1280l-190,0l0,107l624,0l0,-107l-231,0l0,-219l313,0C968,1167 1087,1129 1174,1054C1261,978 1305,876 1305,748C1305,619 1261,516 1174,440C1086,364 968,326 819,326l-313,0l0,-220l231,0l0,-106z"
   id="glyph5968" />
<glyph
   unicode="ß"
   horiz-adv-x="1368"
   d="M940,1210C935,1289 909,1351 863,1394C816,1437 753,1458 674,1458C586,1458 522,1437 481,1394C440,1351 420,1283 420,1190l0,-1190l-361,0l0,106l177,0l0,1080C236,1303 274,1394 351,1459C427,1524 535,1556 674,1556C816,1556 924,1521 999,1452C1073,1383 1114,1278 1122,1137l-22,0C1003,1137 927,1119 872,1083C816,1047 788,998 788,936C788,901 797,871 815,846C833,820 866,791 915,760l89,-55C1107,639 1179,578 1219,521C1258,464 1278,398 1278,322C1278,219 1240,134 1163,69C1086,4 985,-29 862,-29C805,-29 749,-23 693,-10C637,2 583,20 530,43l0,233l109,0C642,209 662,158 699,123C736,88 788,70 856,70C930,70 988,90 1031,131C1073,171 1094,226 1094,295C1094,351 1081,399 1054,438C1027,477 975,520 897,569l-86,54C742,666 692,710 663,753C633,796 618,844 618,899C618,980 646,1048 703,1103C759,1158 838,1193 940,1210z"
   id="glyph5970" />
<glyph
   unicode="à"
   horiz-adv-x="1221"
   d="M815,334l0,225l-237,0C487,559 419,539 374,500C329,461 307,400 307,319C307,245 330,186 375,143C420,100 482,78 559,78C636,78 698,102 745,149C792,196 815,258 815,334M999,664l0,-558l164,0l0,-106l-348,0l0,115C774,66 727,29 674,6C621,-17 558,-29 487,-29C369,-29 275,2 206,65C137,128 102,212 102,319C102,429 142,514 221,575C300,636 412,666 557,666l258,0l0,73C815,820 791,882 742,927C693,971 624,993 535,993C462,993 403,976 360,943C317,910 290,860 279,795l-95,0l0,215C248,1037 310,1058 371,1072C431,1085 490,1092 547,1092C694,1092 807,1056 884,983C961,910 999,803 999,664M424,1636l260,-376l-117,0l-340,376z"
   id="glyph5972" />
<glyph
   unicode="á"
   horiz-adv-x="1221"
   d="M815,334l0,225l-237,0C487,559 419,539 374,500C329,461 307,400 307,319C307,245 330,186 375,143C420,100 482,78 559,78C636,78 698,102 745,149C792,196 815,258 815,334M999,664l0,-558l164,0l0,-106l-348,0l0,115C774,66 727,29 674,6C621,-17 558,-29 487,-29C369,-29 275,2 206,65C137,128 102,212 102,319C102,429 142,514 221,575C300,636 412,666 557,666l258,0l0,73C815,820 791,882 742,927C693,971 624,993 535,993C462,993 403,976 360,943C317,910 290,860 279,795l-95,0l0,215C248,1037 310,1058 371,1072C431,1085 490,1092 547,1092C694,1092 807,1056 884,983C961,910 999,803 999,664M708,1638l199,0l-340,-376l-117,0z"
   id="glyph5974" />
<glyph
   unicode="â"
   horiz-adv-x="1221"
   d="M815,334l0,225l-237,0C487,559 419,539 374,500C329,461 307,400 307,319C307,245 330,186 375,143C420,100 482,78 559,78C636,78 698,102 745,149C792,196 815,258 815,334M999,664l0,-558l164,0l0,-106l-348,0l0,115C774,66 727,29 674,6C621,-17 558,-29 487,-29C369,-29 275,2 206,65C137,128 102,212 102,319C102,429 142,514 221,575C300,636 412,666 557,666l258,0l0,73C815,820 791,882 742,927C693,971 624,993 535,993C462,993 403,976 360,943C317,910 290,860 279,795l-95,0l0,215C248,1037 310,1058 371,1072C431,1085 490,1092 547,1092C694,1092 807,1056 884,983C961,910 999,803 999,664M485,1638l168,0l235,-376l-116,0l-203,260l-203,-260l-116,0z"
   id="glyph5976" />
<glyph
   unicode="ã"
   horiz-adv-x="1221"
   d="M815,334l0,225l-237,0C487,559 419,539 374,500C329,461 307,400 307,319C307,245 330,186 375,143C420,100 482,78 559,78C636,78 698,102 745,149C792,196 815,258 815,334M999,664l0,-558l164,0l0,-106l-348,0l0,115C774,66 727,29 674,6C621,-17 558,-29 487,-29C369,-29 275,2 206,65C137,128 102,212 102,319C102,429 142,514 221,575C300,636 412,666 557,666l258,0l0,73C815,820 791,882 742,927C693,971 624,993 535,993C462,993 403,976 360,943C317,910 290,860 279,795l-95,0l0,215C248,1037 310,1058 371,1072C431,1085 490,1092 547,1092C694,1092 807,1056 884,983C961,910 999,803 999,664M565,1370l-57,55C491,1441 477,1452 466,1457C455,1462 443,1464 430,1464C402,1464 380,1451 364,1425C348,1398 338,1360 335,1309l-96,0C240,1399 258,1469 292,1518C326,1567 373,1591 434,1591C459,1591 483,1586 504,1577C525,1568 548,1552 573,1530l57,-55C645,1460 659,1449 670,1444C681,1439 694,1436 708,1436C737,1436 759,1449 775,1476C791,1503 800,1541 803,1591l96,0C898,1501 880,1432 846,1383C812,1334 765,1309 704,1309C679,1309 655,1314 634,1323C613,1332 590,1348 565,1370z"
   id="glyph5978" />
<glyph
   unicode="ä"
   horiz-adv-x="1221"
   d="M815,334l0,225l-237,0C487,559 419,539 374,500C329,461 307,400 307,319C307,245 330,186 375,143C420,100 482,78 559,78C636,78 698,102 745,149C792,196 815,258 815,334M999,664l0,-558l164,0l0,-106l-348,0l0,115C774,66 727,29 674,6C621,-17 558,-29 487,-29C369,-29 275,2 206,65C137,128 102,212 102,319C102,429 142,514 221,575C300,636 412,666 557,666l258,0l0,73C815,820 791,882 742,927C693,971 624,993 535,993C462,993 403,976 360,943C317,910 290,860 279,795l-95,0l0,215C248,1037 310,1058 371,1072C431,1085 490,1092 547,1092C694,1092 807,1056 884,983C961,910 999,803 999,664M374,1569C406,1569 434,1558 457,1535C480,1512 491,1484 491,1452C491,1418 480,1390 458,1368C436,1346 408,1335 374,1335C341,1335 313,1346 291,1368C269,1390 258,1418 258,1452C258,1484 270,1512 293,1535C316,1558 343,1569 374,1569M764,1569C795,1569 823,1558 846,1535C869,1512 880,1484 880,1452C880,1418 869,1390 847,1368C825,1346 797,1335 764,1335C730,1335 702,1346 680,1368C658,1390 647,1418 647,1452C647,1484 659,1512 682,1535C705,1558 732,1569 764,1569z"
   id="glyph5980" />
<glyph
   unicode="å"
   horiz-adv-x="1221"
   d="M815,334l0,225l-237,0C487,559 419,539 374,500C329,461 307,400 307,319C307,245 330,186 375,143C420,100 482,78 559,78C636,78 698,102 745,149C792,196 815,258 815,334M999,664l0,-558l164,0l0,-106l-348,0l0,115C774,66 727,29 674,6C621,-17 558,-29 487,-29C369,-29 275,2 206,65C137,128 102,212 102,319C102,429 142,514 221,575C300,636 412,666 557,666l258,0l0,73C815,820 791,882 742,927C693,971 624,993 535,993C462,993 403,976 360,943C317,910 290,860 279,795l-95,0l0,215C248,1037 310,1058 371,1072C431,1085 490,1092 547,1092C694,1092 807,1056 884,983C961,910 999,803 999,664M843,1524C843,1447 817,1382 764,1329C711,1276 646,1249 569,1249C492,1249 428,1276 375,1329C322,1382 295,1447 295,1524C295,1601 322,1666 375,1719C428,1772 492,1798 569,1798C646,1798 711,1772 764,1719C817,1666 843,1601 843,1524M721,1524C721,1566 706,1602 677,1631C648,1660 612,1675 569,1675C526,1675 490,1661 461,1632C432,1603 417,1567 417,1524C417,1481 432,1445 461,1416C490,1387 526,1372 569,1372C612,1372 648,1387 677,1416C706,1445 721,1481 721,1524z"
   id="glyph5982" />
<glyph
   unicode="æ"
   horiz-adv-x="1925"
   d="M815,334l0,225l-237,0C487,559 419,539 374,500C329,461 307,400 307,319C307,245 330,186 375,143C420,100 482,78 559,78C636,78 698,102 745,149C792,196 815,258 815,334M924,150C869,89 807,44 740,15C673,-14 597,-29 514,-29C383,-29 281,1 210,62C138,123 102,208 102,319C102,429 142,514 222,575C301,636 413,666 557,666l258,0l0,73C815,819 791,881 743,926C695,971 628,993 543,993C466,993 405,977 361,944C317,911 290,861 279,795l-95,0l0,215C248,1037 310,1058 371,1072C431,1085 490,1092 547,1092C641,1092 720,1078 785,1049C849,1020 899,975 936,915C985,974 1042,1018 1106,1048C1170,1077 1241,1092 1319,1092C1480,1092 1603,1042 1689,943C1775,844 1819,700 1822,512l-792,0l0,-8C1030,361 1057,253 1111,180C1164,107 1244,70 1350,70C1431,70 1497,91 1549,134C1600,176 1636,239 1657,322l147,0C1775,205 1721,118 1642,59C1563,0 1459,-29 1331,-29C1250,-29 1175,-14 1106,17C1037,47 976,91 924,150M1606,618C1602,742 1576,836 1528,899C1479,962 1410,993 1319,993C1234,993 1168,961 1119,898C1070,835 1040,741 1030,618z"
   id="glyph5984" />
<glyph
   unicode="ç"
   horiz-adv-x="1147"
   d="M1053,319C1027,206 977,119 903,60C829,1 733,-29 616,-29C461,-29 337,22 243,125C149,227 102,363 102,532C102,702 149,838 243,940C337,1041 461,1092 616,1092C683,1092 750,1084 817,1069C884,1053 951,1029 1018,997l0,-272l-107,0C897,818 867,886 820,929C773,972 705,993 618,993C519,993 444,955 393,878C342,801 317,685 317,532C317,379 342,263 393,186C443,109 518,70 618,70C697,70 761,91 808,132C855,173 888,236 905,319M678,0C721,-43 753,-83 774,-120C795,-157 805,-192 805,-225C805,-279 784,-321 742,-350C700,-380 642,-395 567,-395C539,-395 510,-393 481,-389C452,-385 422,-379 391,-371l0,131C418,-251 445,-260 472,-265C498,-271 523,-274 546,-274C584,-274 614,-265 636,-247C658,-230 669,-206 669,-176C669,-157 662,-133 647,-104C632,-75 610,-40 581,0z"
   id="glyph5986" />
<glyph
   unicode="è"
   horiz-adv-x="1212"
   d="M1110,512l-793,0l0,-8C317,361 344,253 398,180C452,107 532,70 637,70C718,70 784,91 836,134C887,176 923,239 944,322l148,0C1063,205 1009,118 930,59C851,0 747,-29 618,-29C463,-29 338,22 244,125C149,227 102,363 102,532C102,700 148,835 241,938C334,1041 455,1092 606,1092C767,1092 890,1043 976,944C1062,845 1107,701 1110,512M893,618C889,742 863,836 815,899C766,962 697,993 606,993C521,993 455,961 406,898C357,835 328,741 317,618M461,1636l260,-376l-117,0l-340,376z"
   id="glyph5988" />
<glyph
   unicode="é"
   horiz-adv-x="1212"
   d="M1110,512l-793,0l0,-8C317,361 344,253 398,180C452,107 532,70 637,70C718,70 784,91 836,134C887,176 923,239 944,322l148,0C1063,205 1009,118 930,59C851,0 747,-29 618,-29C463,-29 338,22 244,125C149,227 102,363 102,532C102,700 148,835 241,938C334,1041 455,1092 606,1092C767,1092 890,1043 976,944C1062,845 1107,701 1110,512M893,618C889,742 863,836 815,899C766,962 697,993 606,993C521,993 455,961 406,898C357,835 328,741 317,618M745,1638l199,0l-340,-376l-117,0z"
   id="glyph5990" />
<glyph
   unicode="ê"
   horiz-adv-x="1212"
   d="M1110,512l-793,0l0,-8C317,361 344,253 398,180C452,107 532,70 637,70C718,70 784,91 836,134C887,176 923,239 944,322l148,0C1063,205 1009,118 930,59C851,0 747,-29 618,-29C463,-29 338,22 244,125C149,227 102,363 102,532C102,700 148,835 241,938C334,1041 455,1092 606,1092C767,1092 890,1043 976,944C1062,845 1107,701 1110,512M893,618C889,742 863,836 815,899C766,962 697,993 606,993C521,993 455,961 406,898C357,835 328,741 317,618M522,1638l168,0l235,-376l-116,0l-203,260l-203,-260l-116,0z"
   id="glyph5992" />
<glyph
   unicode="ë"
   horiz-adv-x="1212"
   d="M1110,512l-793,0l0,-8C317,361 344,253 398,180C452,107 532,70 637,70C718,70 784,91 836,134C887,176 923,239 944,322l148,0C1063,205 1009,118 930,59C851,0 747,-29 618,-29C463,-29 338,22 244,125C149,227 102,363 102,532C102,700 148,835 241,938C334,1041 455,1092 606,1092C767,1092 890,1043 976,944C1062,845 1107,701 1110,512M893,618C889,742 863,836 815,899C766,962 697,993 606,993C521,993 455,961 406,898C357,835 328,741 317,618M411,1569C443,1569 471,1558 494,1535C517,1512 528,1484 528,1452C528,1418 517,1390 495,1368C473,1346 445,1335 411,1335C378,1335 350,1346 328,1368C306,1390 295,1418 295,1452C295,1484 307,1512 330,1535C353,1558 380,1569 411,1569M801,1569C832,1569 860,1558 883,1535C906,1512 917,1484 917,1452C917,1418 906,1390 884,1368C862,1346 834,1335 801,1335C767,1335 739,1346 717,1368C695,1390 684,1418 684,1452C684,1484 696,1512 719,1535C742,1558 769,1569 801,1569z"
   id="glyph5994" />
<glyph
   unicode="ì"
   horiz-adv-x="655"
   d="M434,106l174,0l0,-106l-534,0l0,106l176,0l0,850l-176,0l0,107l360,0M183,1636l260,-376l-117,0l-340,376z"
   id="glyph5996" />
<glyph
   unicode="í"
   horiz-adv-x="655"
   d="M434,106l174,0l0,-106l-534,0l0,106l176,0l0,850l-176,0l0,107l360,0M467,1638l199,0l-340,-376l-117,0z"
   id="glyph5998" />
<glyph
   unicode="î"
   horiz-adv-x="655"
   d="M434,106l174,0l0,-106l-534,0l0,106l176,0l0,850l-176,0l0,107l360,0M244,1638l168,0l235,-376l-116,0l-203,260l-203,-260l-116,0z"
   id="glyph6000" />
<glyph
   unicode="ï"
   horiz-adv-x="655"
   d="M434,106l174,0l0,-106l-534,0l0,106l176,0l0,850l-176,0l0,107l360,0M133,1569C165,1569 193,1558 216,1535C239,1512 250,1484 250,1452C250,1418 239,1390 217,1368C195,1346 167,1335 133,1335C100,1335 72,1346 50,1368C28,1390 17,1418 17,1452C17,1484 29,1512 52,1535C75,1558 102,1569 133,1569M523,1569C554,1569 582,1558 605,1535C628,1512 639,1484 639,1452C639,1418 628,1390 606,1368C584,1346 556,1335 523,1335C489,1335 461,1346 439,1368C417,1390 406,1418 406,1452C406,1484 418,1512 441,1535C464,1558 491,1569 523,1569z"
   id="glyph6002" />
<glyph
   unicode="ð"
   horiz-adv-x="1233"
   d="M821,928C791,934 763,939 736,942C709,945 682,946 655,946C540,946 455,910 400,839C345,768 317,657 317,508C317,368 343,260 396,184C448,108 521,70 616,70C712,70 786,108 838,185C889,261 915,370 915,512C915,587 907,659 892,730C876,800 852,866 821,928M760,1307C882,1196 974,1075 1037,945C1099,814 1130,677 1130,532C1130,363 1083,227 990,125C896,22 771,-29 616,-29C463,-29 340,22 245,123C150,224 102,355 102,518C102,675 149,802 243,899C337,996 460,1044 612,1044C635,1044 660,1043 685,1041C710,1039 739,1035 774,1030C759,1065 740,1101 716,1137C691,1172 662,1208 629,1245l-322,-149l-37,78l293,135C522,1348 476,1381 424,1408C371,1435 313,1455 250,1470l18,86C347,1539 422,1514 492,1483C561,1452 627,1413 688,1368l322,150l37,-78z"
   id="glyph6004" />
<glyph
   unicode="ñ"
   horiz-adv-x="1319"
   d="M84,0l0,106l166,0l0,850l-176,0l0,107l360,0l0,-189C468,946 512,1000 567,1037C621,1074 684,1092 756,1092C873,1092 960,1058 1015,991C1070,924 1098,819 1098,676l0,-570l164,0l0,-106l-508,0l0,106l159,0l0,512C913,748 897,837 865,886C833,934 777,958 696,958C611,958 546,927 501,865C456,802 434,711 434,592l0,-486l160,0l0,-106M655,1370l-57,55C581,1441 567,1452 556,1457C545,1462 533,1464 520,1464C492,1464 470,1451 454,1425C438,1398 428,1360 425,1309l-96,0C330,1399 348,1469 382,1518C416,1567 463,1591 524,1591C549,1591 573,1586 594,1577C615,1568 638,1552 663,1530l57,-55C735,1460 749,1449 760,1444C771,1439 784,1436 798,1436C827,1436 849,1449 865,1476C881,1503 890,1541 893,1591l96,0C988,1501 970,1432 936,1383C902,1334 855,1309 794,1309C769,1309 745,1314 724,1323C703,1332 680,1348 655,1370z"
   id="glyph6006" />
<glyph
   unicode="ò"
   horiz-adv-x="1233"
   d="M616,70C715,70 789,109 840,187C890,265 915,380 915,532C915,684 890,799 840,877C789,954 715,993 616,993C517,993 443,954 393,877C342,799 317,684 317,532C317,380 342,265 393,187C444,109 518,70 616,70M616,-29C461,-29 337,22 243,125C149,227 102,363 102,532C102,701 149,837 243,939C336,1041 461,1092 616,1092C771,1092 896,1041 990,939C1083,837 1130,701 1130,532C1130,363 1083,227 990,125C896,22 771,-29 616,-29M471,1636l260,-376l-117,0l-340,376z"
   id="glyph6008" />
<glyph
   unicode="ó"
   horiz-adv-x="1233"
   d="M616,70C715,70 789,109 840,187C890,265 915,380 915,532C915,684 890,799 840,877C789,954 715,993 616,993C517,993 443,954 393,877C342,799 317,684 317,532C317,380 342,265 393,187C444,109 518,70 616,70M616,-29C461,-29 337,22 243,125C149,227 102,363 102,532C102,701 149,837 243,939C336,1041 461,1092 616,1092C771,1092 896,1041 990,939C1083,837 1130,701 1130,532C1130,363 1083,227 990,125C896,22 771,-29 616,-29M755,1638l199,0l-340,-376l-117,0z"
   id="glyph6010" />
<glyph
   unicode="ô"
   horiz-adv-x="1233"
   d="M616,70C715,70 789,109 840,187C890,265 915,380 915,532C915,684 890,799 840,877C789,954 715,993 616,993C517,993 443,954 393,877C342,799 317,684 317,532C317,380 342,265 393,187C444,109 518,70 616,70M616,-29C461,-29 337,22 243,125C149,227 102,363 102,532C102,701 149,837 243,939C336,1041 461,1092 616,1092C771,1092 896,1041 990,939C1083,837 1130,701 1130,532C1130,363 1083,227 990,125C896,22 771,-29 616,-29M532,1638l168,0l235,-376l-116,0l-203,260l-203,-260l-116,0z"
   id="glyph6012" />
<glyph
   unicode="õ"
   horiz-adv-x="1233"
   d="M616,70C715,70 789,109 840,187C890,265 915,380 915,532C915,684 890,799 840,877C789,954 715,993 616,993C517,993 443,954 393,877C342,799 317,684 317,532C317,380 342,265 393,187C444,109 518,70 616,70M616,-29C461,-29 337,22 243,125C149,227 102,363 102,532C102,701 149,837 243,939C336,1041 461,1092 616,1092C771,1092 896,1041 990,939C1083,837 1130,701 1130,532C1130,363 1083,227 990,125C896,22 771,-29 616,-29M612,1370l-57,55C538,1441 524,1452 513,1457C502,1462 490,1464 477,1464C449,1464 427,1451 411,1425C395,1398 385,1360 382,1309l-96,0C287,1399 305,1469 339,1518C373,1567 420,1591 481,1591C506,1591 530,1586 551,1577C572,1568 595,1552 620,1530l57,-55C692,1460 706,1449 717,1444C728,1439 741,1436 755,1436C784,1436 806,1449 822,1476C838,1503 847,1541 850,1591l96,0C945,1501 927,1432 893,1383C859,1334 812,1309 751,1309C726,1309 702,1314 681,1323C660,1332 637,1348 612,1370z"
   id="glyph6014" />
<glyph
   unicode="ö"
   horiz-adv-x="1233"
   d="M616,70C715,70 789,109 840,187C890,265 915,380 915,532C915,684 890,799 840,877C789,954 715,993 616,993C517,993 443,954 393,877C342,799 317,684 317,532C317,380 342,265 393,187C444,109 518,70 616,70M616,-29C461,-29 337,22 243,125C149,227 102,363 102,532C102,701 149,837 243,939C336,1041 461,1092 616,1092C771,1092 896,1041 990,939C1083,837 1130,701 1130,532C1130,363 1083,227 990,125C896,22 771,-29 616,-29M421,1569C453,1569 481,1558 504,1535C527,1512 538,1484 538,1452C538,1418 527,1390 505,1368C483,1346 455,1335 421,1335C388,1335 360,1346 338,1368C316,1390 305,1418 305,1452C305,1484 317,1512 340,1535C363,1558 390,1569 421,1569M811,1569C842,1569 870,1558 893,1535C916,1512 927,1484 927,1452C927,1418 916,1390 894,1368C872,1346 844,1335 811,1335C777,1335 749,1346 727,1368C705,1390 694,1418 694,1452C694,1484 706,1512 729,1535C752,1558 779,1569 811,1569z"
   id="glyph6016" />
<glyph
   unicode="÷"
   horiz-adv-x="1716"
   d="M725,1012C725,1049 738,1081 764,1107C789,1132 821,1145 858,1145C895,1145 926,1132 952,1106C978,1080 991,1049 991,1012C991,975 978,943 952,918C926,892 895,879 858,879C820,879 788,892 763,917C738,942 725,974 725,1012M725,272C725,309 738,341 764,367C789,393 821,406 858,406C895,406 926,393 952,367C978,341 991,309 991,272C991,235 978,204 952,178C926,152 895,139 858,139C820,139 788,152 763,178C738,203 725,235 725,272M217,723l1282,0l0,-162l-1282,0z"
   id="glyph6018" />
<glyph
   unicode="ø"
   horiz-adv-x="1233"
   d="M840,879C815,917 783,946 746,965C709,984 665,993 616,993C518,993 444,954 393,876C342,798 317,683 317,532C317,484 320,440 325,401C330,362 337,326 346,293M391,190C418,149 450,119 487,100C524,80 567,70 616,70C714,70 788,109 839,188C890,266 915,381 915,532C915,583 913,628 908,669C903,709 895,746 885,780M1004,922C1045,873 1077,815 1098,749C1119,683 1130,611 1130,532C1130,363 1083,227 990,125C896,22 771,-29 616,-29C553,-29 495,-20 442,-2C389,15 340,42 295,78l-143,-172l-76,63l149,178C184,198 154,256 133,321C112,385 102,455 102,532C102,701 149,837 243,939C336,1041 461,1092 616,1092C679,1092 737,1084 790,1067C843,1050 891,1024 934,991l139,166l76,-63z"
   id="glyph6020" />
<glyph
   unicode="ù"
   horiz-adv-x="1319"
   d="M725,1063l344,0l0,-957l174,0l0,-106l-358,0l0,188C851,117 807,64 753,27C699,-10 636,-29 565,-29C447,-29 360,5 305,72C249,139 221,244 221,387l0,569l-166,0l0,107l351,0l0,-619C406,315 422,226 454,178C485,130 542,106 623,106C708,106 773,137 818,200C863,263 885,354 885,473l0,483l-160,0M439,1636l260,-376l-117,0l-340,376z"
   id="glyph6022" />
<glyph
   unicode="ú"
   horiz-adv-x="1319"
   d="M725,1063l344,0l0,-957l174,0l0,-106l-358,0l0,188C851,117 807,64 753,27C699,-10 636,-29 565,-29C447,-29 360,5 305,72C249,139 221,244 221,387l0,569l-166,0l0,107l351,0l0,-619C406,315 422,226 454,178C485,130 542,106 623,106C708,106 773,137 818,200C863,263 885,354 885,473l0,483l-160,0M723,1638l199,0l-340,-376l-117,0z"
   id="glyph6024" />
<glyph
   unicode="û"
   horiz-adv-x="1319"
   d="M725,1063l344,0l0,-957l174,0l0,-106l-358,0l0,188C851,117 807,64 753,27C699,-10 636,-29 565,-29C447,-29 360,5 305,72C249,139 221,244 221,387l0,569l-166,0l0,107l351,0l0,-619C406,315 422,226 454,178C485,130 542,106 623,106C708,106 773,137 818,200C863,263 885,354 885,473l0,483l-160,0M500,1638l168,0l235,-376l-116,0l-203,260l-203,-260l-116,0z"
   id="glyph6026" />
<glyph
   unicode="ü"
   horiz-adv-x="1319"
   d="M725,1063l344,0l0,-957l174,0l0,-106l-358,0l0,188C851,117 807,64 753,27C699,-10 636,-29 565,-29C447,-29 360,5 305,72C249,139 221,244 221,387l0,569l-166,0l0,107l351,0l0,-619C406,315 422,226 454,178C485,130 542,106 623,106C708,106 773,137 818,200C863,263 885,354 885,473l0,483l-160,0M389,1569C421,1569 449,1558 472,1535C495,1512 506,1484 506,1452C506,1418 495,1390 473,1368C451,1346 423,1335 389,1335C356,1335 328,1346 306,1368C284,1390 273,1418 273,1452C273,1484 285,1512 308,1535C331,1558 358,1569 389,1569M779,1569C810,1569 838,1558 861,1535C884,1512 895,1484 895,1452C895,1418 884,1390 862,1368C840,1346 812,1335 779,1335C745,1335 717,1346 695,1368C673,1390 662,1418 662,1452C662,1484 674,1512 697,1535C720,1558 747,1569 779,1569z"
   id="glyph6028" />
<glyph
   unicode="ý"
   horiz-adv-x="1157"
   d="M442,-195l70,177l-397,974l-121,0l0,107l489,0l0,-107l-170,0l299,-731l299,731l-159,0l0,107l399,0l0,-107l-119,0l-487,-1196C512,-323 475,-379 434,-409C393,-440 336,-455 262,-455C231,-455 199,-452 166,-447C133,-442 99,-434 66,-424l0,203l94,0C164,-266 176,-299 195,-318C214,-338 243,-348 283,-348C320,-348 349,-338 372,-317C394,-297 417,-256 442,-195M719,1638l199,0l-340,-376l-117,0z"
   id="glyph6030" />
<glyph
   unicode="þ"
   horiz-adv-x="1311"
   d="M420,584l0,-105C420,351 445,254 494,187C543,120 614,86 707,86C801,86 872,124 921,199C969,274 993,385 993,532C993,679 969,790 921,865C872,940 801,977 707,977C614,977 543,943 494,876C445,809 420,711 420,584M236,1450l-177,0l0,106l361,0l0,-659C456,964 502,1013 558,1045C613,1076 682,1092 764,1092C895,1092 1001,1040 1084,937C1167,834 1208,699 1208,532C1208,365 1167,230 1084,127C1001,23 895,-29 764,-29C682,-29 613,-13 558,19C502,50 456,99 420,166l0,-485l174,0l0,-107l-535,0l0,107l177,0z"
   id="glyph6032" />
<glyph
   unicode="–"
   horiz-adv-x="1024"
   d="M90,610l844,0l0,-133l-844,0z"
   id="glyph6034" />
<glyph
   unicode="—"
   horiz-adv-x="2048"
   d="M90,610l1868,0l0,-133l-1868,0z"
   id="glyph6036" />
<glyph
   unicode="‘"
   horiz-adv-x="651"
   d="M549,1440C498,1397 461,1348 438,1291C415,1234 403,1163 403,1077l0,-63l-194,0C210,1130 231,1228 273,1309C314,1389 380,1459 471,1520z"
   id="glyph6038" />
<glyph
   unicode="’"
   horiz-adv-x="651"
   d="M145,1067C197,1109 235,1159 258,1216C281,1273 293,1345 293,1432l0,61l194,0C486,1378 465,1280 423,1199C381,1118 314,1048 223,987z"
   id="glyph6040" />
<glyph
   unicode="“"
   horiz-adv-x="1047"
   d="M944,1440C893,1397 857,1348 834,1291C811,1234 799,1163 799,1077l0,-63l-195,0C605,1131 627,1229 668,1309C709,1389 775,1459 866,1520M549,1440C498,1397 461,1348 438,1291C415,1234 403,1163 403,1077l0,-63l-194,0C210,1130 231,1228 273,1309C314,1389 380,1459 471,1520z"
   id="glyph6042" />
<glyph
   unicode="”"
   horiz-adv-x="1047"
   d="M145,1067C197,1109 235,1159 258,1216C281,1273 293,1345 293,1432l0,61l194,0C486,1378 465,1280 423,1199C381,1118 314,1048 223,987M543,1067C594,1109 631,1159 654,1216C677,1273 688,1344 688,1430l0,63l194,0C881,1376 860,1278 819,1198C777,1118 711,1048 621,987z"
   id="glyph6044" />
<glyph
   unicode="•"
   horiz-adv-x="1208"
   d="M307,762C307,845 336,915 394,972C451,1029 522,1057 606,1057C689,1057 759,1029 816,972C873,915 901,845 901,762C901,679 872,608 815,551C758,494 687,465 604,465C521,465 450,494 393,551C336,608 307,679 307,762z"
   id="glyph6046" />
<glyph
   unicode="…"
   horiz-adv-x="2048"
   d="M1573,104C1573,141 1586,173 1612,199C1637,225 1669,238 1706,238C1743,238 1774,225 1800,199C1826,173 1839,141 1839,104C1839,67 1826,36 1800,10C1774,-16 1743,-29 1706,-29C1668,-29 1636,-16 1611,10C1586,35 1573,67 1573,104M891,104C891,141 904,173 930,199C955,225 987,238 1024,238C1061,238 1092,225 1118,199C1144,173 1157,141 1157,104C1157,67 1144,36 1118,10C1092,-16 1061,-29 1024,-29C986,-29 954,-16 929,10C904,35 891,67 891,104M209,104C209,141 222,173 248,199C273,225 305,238 342,238C379,238 410,225 436,199C462,173 475,141 475,104C475,67 462,36 436,10C410,-16 379,-29 342,-29C304,-29 272,-16 247,10C222,35 209,67 209,104z"
   id="glyph6048" />
<glyph
   unicode="€"
   horiz-adv-x="1303"
   d="M1137,395C1108,258 1056,154 979,81C902,8 805,-29 690,-29C564,-29 456,22 365,123C274,224 213,363 182,539l-190,0l45,104l135,0C171,653 171,666 170,682C169,715 168,736 168,745C168,768 168,787 169,803C170,819 171,835 172,850l-180,0l45,104l145,0C213,1130 274,1268 365,1369C455,1470 563,1520 690,1520C756,1520 822,1510 889,1489C955,1468 1029,1435 1112,1389l0,-342l-106,0C993,1167 961,1259 910,1324C859,1389 792,1421 711,1421C620,1421 548,1381 493,1302C438,1223 403,1107 389,954l504,0l-47,-104l-463,0C382,841 382,828 381,813C380,779 379,756 379,745C379,739 379,725 380,702C381,679 381,660 381,643l375,0l-47,-104l-320,0C404,386 439,269 494,190C549,110 621,70 711,70C788,70 852,98 903,154C953,209 987,290 1004,395z"
   id="glyph6050" />
<glyph
   unicode="™"
   horiz-adv-x="2048"
   d="M1118,1493l174,-270l181,270l219,0l0,-66l-86,0l0,-446l86,0l0,-66l-285,0l0,66l86,0l0,426l-209,-311l-43,0l-199,311l0,-426l84,0l0,-66l-241,0l0,66l86,0l0,446l-86,0l0,66M242,1493l557,0l0,-170l-68,0l0,104l-153,0l0,-446l86,0l0,-66l-287,0l0,66l86,0l0,446l-156,0l0,-104l-65,0z"
   id="glyph6052" />
<glyph
   unicode="ﬁ"
   horiz-adv-x="1366"
   d="M1071,1286l-94,1C975,1344 954,1387 913,1416C872,1444 811,1458 729,1458C627,1458 552,1434 505,1387C458,1340 434,1265 434,1163l0,-100l711,0l0,-957l174,0l0,-106l-535,0l0,106l177,0l0,850l-527,0l0,-850l174,0l0,-106l-534,0l0,106l176,0l0,850l-176,0l0,107l176,0l0,96C250,1290 289,1389 367,1456C445,1523 560,1556 713,1556C771,1556 830,1552 891,1543C952,1534 1012,1521 1071,1503z"
   id="glyph6054" />
<glyph
   unicode="ﬂ"
   horiz-adv-x="1366"
   d="M733,1556l397,0l0,-1450l175,0l0,-106l-535,0l0,106l176,0l0,1344l-215,0C622,1450 546,1428 501,1385C456,1342 434,1268 434,1163l0,-100l295,0l0,-107l-295,0l0,-850l174,0l0,-106l-534,0l0,106l176,0l0,850l-176,0l0,107l176,0l0,96C250,1293 290,1393 370,1458C449,1523 570,1556 733,1556z"
   id="glyph6056" />
</font>
</defs>
</svg>
