<svg xmlns="http://www.w3.org/2000/svg">
<defs>
<font horiz-adv-x="1000">
<!-- Copyright 2014, 2015, 2018 Adobe (http://www.adobe.com/), with Reserved Font Name 'Source'. Source is a trademark of Adobe in the United States and/or other countries. -->
<font-face font-family="SourceHanSansTC-Bold-B5pc-H" units-per-em="1000" underline-position="-150" underline-thickness="50"/>
<missing-glyph horiz-adv-x="1000" d="M100,-120l800,0l0,1000l-800,0M500,421l-318,409l636,0M532,380l318,409l0,-818M182,-70l318,409l318,-409M150,789l318,-409l-318,-409z"/>
<glyph unicode="1" horiz-adv-x="589" d="M82,0l445,0l0,119l-139,0l0,622l-109,0C232,711 181,692 107,678l0,-91l134,0l0,-468l-159,0z"/>
<glyph unicode="2" horiz-adv-x="589" d="M43,0l496,0l0,124l-160,0C344,124 295,120 258,116C393,248 504,392 504,526C504,664 411,754 271,754C170,754 104,715 36,642l80,-80C154,603 198,638 252,638C323,638 363,593 363,518C363,404 244,265 43,85z"/>
<glyph unicode="4" horiz-adv-x="589" d="M164,304l115,184C300,528 320,569 338,609l4,0C340,565 337,498 337,455l0,-151M337,0l137,0l0,192l87,0l0,112l-87,0l0,437l-177,0l-276,-449l0,-100l316,0z"/>
<glyph unicode="7" horiz-adv-x="589" d="M186,0l149,0C347,290 370,441 542,651l0,90l-492,0l0,-124l333,0C242,421 199,257 186,0z"/>
<glyph unicode="8" horiz-adv-x="589" d="M294,-14C444,-14 543,72 543,184C543,285 487,345 419,382l0,5C468,422 514,483 514,556C514,674 430,753 299,753C171,753 76,677 76,558C76,479 117,423 174,382l0,-5C105,341 47,279 47,184C47,68 153,-14 294,-14M341,423C263,454 206,488 206,558C206,617 246,650 296,650C358,650 394,607 394,547C394,503 377,461 341,423M298,90C229,90 174,133 174,200C174,255 202,305 242,337C338,298 406,266 406,189C406,125 361,90 298,90z"/>
<glyph unicode="9" horiz-adv-x="589" d="M175,507C175,598 220,643 275,643C338,643 389,593 402,459C368,402 321,379 280,379C216,379 175,420 175,507M255,-14C402,-14 539,107 539,387C539,644 413,754 273,754C146,754 40,659 40,507C40,350 129,274 252,274C302,274 365,304 404,354C397,169 329,106 246,106C202,106 157,129 130,159l-78,-89C96,25 163,-14 255,-14z"/>
<glyph unicode="卫" horiz-adv-x="1000" d="M515,59l0,597l248,0l0,-275C763,368 757,363 737,363C718,362 646,362 585,365C604,334 627,281 633,248C718,248 781,249 826,268C872,287 886,320 886,379l0,397l-780,0l0,-120l279,0l0,-597l-337,0l0,-118l907,0l0,118z"/>
<glyph unicode="发" horiz-adv-x="1000" d="M879,706C852,743 798,801 759,843l-92,-55C706,743 758,681 783,644M712,325C681,270 641,221 592,179C542,221 500,270 466,325M798,445l-22,-5l-292,0C494,467 503,493 512,522l430,0l0,114l-401,0C554,698 565,764 574,832l-133,22C432,777 419,704 403,636l-138,0C292,687 318,748 335,805l-126,20C190,747 153,669 140,648C127,626 112,612 97,607C110,578 129,524 136,499C145,514 187,522 241,522l130,0C306,329 199,180 22,85C51,64 93,15 109,-11C230,57 321,143 389,248C420,197 455,152 497,112C420,68 333,36 239,16C261,-11 288,-57 301,-89C409,-61 508,-22 594,33C679,-23 780,-64 902,-89C918,-56 950,-7 976,19C867,37 774,68 695,110C777,185 841,282 881,406z"/>
<glyph unicode="土" horiz-adv-x="1000" d="M563,72l0,348l326,0l0,118l-326,0l0,307l-128,0l0,-307l-321,0l0,-118l321,0l0,-348l-386,0l0,-117l906,0l0,117z"/>
<glyph unicode="外" horiz-adv-x="1000" d="M406,589C394,515 378,448 356,388C317,430 267,476 227,515C237,539 246,563 255,589M440,702l-148,0C303,743 313,784 322,827l-120,21C171,676 112,511 25,411C52,393 104,355 125,335C142,357 159,383 175,411C222,363 271,311 304,269C240,151 148,68 34,15C64,-6 114,-56 134,-85C356,32 502,277 548,682l-85,24M976,320C928,381 827,479 758,547l-44,-32l0,332l-126,0l0,-934l126,0l0,513C775,361 842,288 875,239z"/>
<glyph unicode="天" horiz-adv-x="1000" d="M934,358l0,122l-381,0C554,506 555,531 555,555l0,103l340,0l0,122l-792,0l0,-122l327,0l0,-101C430,532 429,507 427,480l-360,0l0,-122l335,0C361,231 263,102 32,20C58,-3 94,-53 110,-83C335,1 448,127 503,260C587,96 708,-20 896,-80C913,-46 949,6 978,31C783,82 655,199 585,358z"/>
<glyph unicode="已" horiz-adv-x="1000" d="M384,59C274,59 256,68 256,130l0,213l454,0l0,-47l124,0l0,495l-741,0l0,-118l617,0l0,-213l-454,0l0,136l-123,0l0,-466C133,-21 192,-59 385,-59l331,0C898,-59 942,-4 965,184C930,191 876,211 845,230C830,85 814,59 711,59z"/>
<glyph unicode="总" horiz-adv-x="1000" d="M299,543l404,0l0,-125l-404,0M420,251C479,209 550,144 584,97l87,76C639,212 579,266 521,306l318,0l0,348l-142,0C726,699 756,749 783,798l-124,51C639,789 603,713 568,654l-184,0l57,27C425,730 381,797 339,846l-103,-48C269,754 303,699 322,654l-153,0l0,-348l319,0M144,-34C187,30 217,128 229,216l-113,21C102,157 71,66 33,15M464,31C405,31 394,36 394,68l0,183l-127,0l0,-185C267,-43 305,-77 452,-77l195,0C759,-77 794,-46 809,77C775,84 723,102 697,121C691,44 682,31 636,31M743,213C800,143 857,49 875,-15l100,59C954,110 893,198 835,266z"/>
<glyph unicode="数" horiz-adv-x="1000" d="M425,834C409,797 382,743 359,708l76,-34C461,705 492,750 525,795M235,398l110,0l0,109C383,477 422,444 444,423l62,83C489,518 433,551 388,577l146,0l0,94l-189,0l0,176l-110,0l0,-176l-101,0l81,36C207,741 182,793 155,830l-84,-35C93,756 116,705 124,671l-78,0l0,-94l148,0C147,528 84,484 25,460C47,438 73,399 86,373C136,400 189,442 235,488M376,239C358,204 334,173 306,145C280,159 252,173 225,186C235,202 245,220 255,239M466,52C446,66 422,81 395,96C446,154 486,226 510,314l-64,24l-18,-3l-127,0C307,348 313,361 318,374l-105,19C206,374 198,355 189,335l-125,0l0,-96l76,0C120,205 101,174 83,148C128,129 178,106 225,81C168,46 101,20 29,4C49,-16 72,-58 83,-85C173,-60 253,-24 320,27C350,9 376,-9 396,-24M783,553C773,468 757,393 734,325C708,396 688,473 673,553M956,553l0,110l-266,0C702,716 712,772 720,828l-108,16C589,666 545,496 465,392C489,375 534,336 550,316C569,343 587,373 603,405C623,329 645,259 674,196C623,113 549,50 448,5C469,-18 500,-68 511,-92C604,-45 676,15 733,91C778,21 833,-36 902,-79C918,-49 953,-6 979,15C904,56 843,119 797,198C844,296 874,413 893,553z"/>
<glyph unicode="星" horiz-adv-x="1000" d="M275,585l442,0l0,-54l-442,0M275,722l442,0l0,-53l-442,0M565,41l0,68l268,0l0,93l-268,0l0,61l314,0l0,98l-314,0l0,61l-123,0l0,-61l-145,0C308,380 317,398 326,416l-83,24l598,0l0,372l-683,0l0,-372l46,0C168,362 105,286 39,236C67,221 115,184 138,163C169,190 201,225 230,263l212,0l0,-61l-258,0l0,-93l258,0l0,-68l-381,0l0,-103l881,0l0,103z"/>
<glyph unicode="木" horiz-adv-x="1000" d="M939,497l0,118l-375,0l0,232l-127,0l0,-232l-373,0l0,-118l321,0C303,340 167,189 18,109C46,84 87,38 107,7C235,87 350,214 437,359l0,-446l127,0l0,451C652,220 767,92 893,11C912,44 953,91 982,115C835,195 695,344 612,497z"/>
<glyph unicode="海" horiz-adv-x="1000" d="M337,728C297,760 218,804 160,831l-66,-80C152,720 230,672 266,638M268,447C232,479 158,523 102,548l-64,-81C94,437 166,391 200,357M168,-71C212,27 257,143 294,249l-91,66C160,198 105,71 64,-6M680,164l32,22C692,211 656,243 623,270l161,0C781,228 778,194 774,164M575,270l-38,-24C566,222 600,191 624,164l-151,0C478,198 483,233 488,270M598,473l-34,-22C589,429 617,402 637,378l-135,0C506,410 510,441 514,473M794,473C793,439 791,408 790,378l-96,0l28,19C705,419 674,448 646,473M970,270l0,108l-71,0C901,423 904,471 906,524C907,539 907,574 907,574l-473,0C447,595 458,617 470,640l474,0l0,106l-425,0C529,770 538,795 546,818l-115,29C397,737 338,622 271,551C299,536 350,503 373,486C385,501 398,518 410,537C405,486 399,432 392,378l-103,0l0,-108l89,0C367,193 355,120 343,63l414,0C753,47 748,38 743,32C733,19 724,16 707,16C687,16 648,16 604,20C621,-7 633,-49 635,-77C682,-80 730,-80 760,-75C793,-70 818,-61 840,-30C853,-13 863,15 871,63l74,0l0,101l-61,0C887,195 890,230 893,270z"/>
<glyph unicode="王" horiz-adv-x="1000" d="M562,73l0,254l303,0l0,118l-303,0l0,224l342,0l0,118l-807,0l0,-118l340,0l0,-224l-293,0l0,-118l293,0l0,-254l-388,0l0,-117l906,0l0,117z"/>
<glyph unicode="现" horiz-adv-x="1000" d="M540,700l254,0l0,-428l118,0l0,530l-484,0l0,-530l112,0M394,218C356,208 319,198 281,188l0,206l93,0l0,109l-93,0l0,176l114,0l0,111l-351,0l0,-111l122,0l0,-176l-107,0l0,-109l107,0l0,-235C114,146 65,134 25,126l24,-114C151,41 285,76 409,111M790,19C768,19 761,28 761,55l0,220l-65,0C715,347 721,416 721,477l0,161l-110,0l0,-158C611,326 583,128 329,-5C352,-22 389,-66 403,-89C528,-23 605,66 652,160l0,-118C652,-43 684,-67 767,-67l73,0C941,-67 958,-21 969,135C942,142 904,158 876,178C873,48 867,19 840,19z"/>
<glyph unicode="行" horiz-adv-x="1000" d="M933,790l-486,0l0,-113l486,0M255,847C207,777 112,687 29,634C50,611 80,563 95,537C190,603 298,706 370,800M293,631C229,518 120,402 18,332C42,307 82,253 99,229C126,251 153,276 181,303l0,-391l119,0l0,522C340,484 377,536 407,587M958,515l-553,0l0,-113l295,0l0,-348C700,39 693,35 675,35C657,34 591,34 534,37C550,2 565,-49 570,-84C659,-84 723,-82 765,-64C809,-46 821,-13 821,51l0,351l137,0z"/>
<glyph unicode="：" horiz-adv-x="1000" d="M500,516C553,516 595,556 595,609C595,664 553,704 500,704C447,704 405,664 405,609C405,556 447,516 500,516M500,39C553,39 595,79 595,132C595,187 553,227 500,227C447,227 405,187 405,132C405,79 447,39 500,39z"/>
</font>
</defs>
</svg>
