<?xml version="1.0" encoding="UTF-8"?>
<svg width="287.19mm" height="306.15mm" clip-rule="evenodd" fill-rule="evenodd" image-rendering="optimizeQuality" shape-rendering="geometricPrecision" text-rendering="geometricPrecision" version="1.1" viewBox="0 0 28719 30615" xml:space="preserve" xmlns="http://www.w3.org/2000/svg" xmlns:cc="http://creativecommons.org/ns#" xmlns:dc="http://purl.org/dc/elements/1.1/" xmlns:rdf="http://www.w3.org/1999/02/22-rdf-syntax-ns#"><metadata><rdf:RDF><cc:Work rdf:about=""><dc:format>image/svg+xml</dc:format><dc:type rdf:resource="http://purl.org/dc/dcmitype/StillImage"/><dc:title/></cc:Work></rdf:RDF></metadata><defs><font id="FontID0" font-weight="400,700" horiz-adv-x="722" horiz-origin-x="0" horiz-origin-y="0" vert-adv-y="90" vert-origin-x="45" vert-origin-y="90"><font-face font-family="Arial"/><missing-glyph><path d="m0 0z"/></missing-glyph><glyph horiz-adv-x="712" unicode="∑"><path d="m67.996 729h603v-81.002h-480.5l293.33-377.33-314.17-401.66h506.33v-79.006h-616v91.001l301.5 385.5-293.51 377.5v85.004z"/></glyph><glyph horiz-adv-x="556" unicode="€"><path d="m524 699-28.506-136c-27.66 28-67.996 42-121 42-53.168 0-95.996-18.995-129-57.16-18.498-21.672-31.67-48.504-39.498-80.837h269l-16.005-75.998h-262.5c-0.33115-7.506-0.49672-16.999-0.49672-28.672 0-11.333 0.33115-22.996 0.99344-35.332h249l-15.996-75.998h-223c8.1591-34.835 20.66-62.329 37.493-82.17 32.673-38.496 75.005-57.831 127-57.831 62.495 0 112.33 19.335 149.5 57.997v-150.17c-42.332-21.166-91.498-31.827-147.83-31.827-94.837 0-172.83 32.664-234 98.001-41.66 44.328-68.998 99.666-82.327 166h-72.834l15.996 75.998h47.501c-0.33115 7.8372-0.49672 16.005-0.49672 24.67 0 14.994 0.33115 28 0.99344 39.333h-63.994l15.996 75.998h57.831c13.503 64.997 40.667 119.33 81.333 163 61.501 66 142.34 99.004 242.5 99.004 54.501 0 102-9.9988 142.34-30.006z"/></glyph><glyph horiz-adv-x="556" unicode="–"><path d="m-1.9961 208v103h556v-103h-556z"/></glyph><glyph horiz-adv-x="416" unicode="ӻ"><path d="m417 408h-214v-89.998h112v-91.001h-112v-151h44.999v-104c0-63.332-8.3339-107.83-25.002-133.17-21.497-32.498-56.663-48.835-105.66-48.835-23.833 0-46.839 3.1735-69.007 9.3365l16.668 74.499c17.67-4.4981 31.505-6.8345 41.669-6.8345 25.167 0 41.338 12.666 48.504 37.999 3.1643 11.333 4.8292 34.338 4.8292 68.667v26.335h-94v227h-53.002v91.001h53.002v201h351v-111z"/></glyph><glyph horiz-adv-x="777" unicode="Ӫ"><path d="m736 357c0-108-28.672-195.67-85.832-262.84-60.839-71.5-144.17-107.16-250.01-107.16-150 0-254.5 56.166-313.83 168.33-29.5 56.166-44.337 122.17-44.337 198.33 0 113.83 29.003 204 86.834 270.67 60.83 69.835 147.33 104.67 259.17 104.67 110.33 0 196.5-34.669 258.66-104.16 59.496-66.671 89.336-155.84 89.336-267.83zm-153 60.996c-7.506 57.334-26.832 102.33-58.006 135-33.832 34.669-78.997 51.999-135.49 51.999-61.832 0-110.17-21.166-145.34-63.332-25.995-30.999-42.332-72.328-49.166-123.66h388zm-0.50592-121h-387.5c7.4968-53.333 25.333-95.002 53.664-125 38.34-40.667 85.335-61.005 140.84-61.005 55.164 0 101.83 20.172 139.83 60.499 28 29.665 45.671 71.5 53.168 125.5zm-356 484v118h118.01v-118h-118.01zm210.51 0v118h118v-118h-118z"/></glyph><glyph horiz-adv-x="556" unicode="ә"><path d="m524 262.33c0-77.829-19.666-142.16-58.999-192.66-43.334-55.173-102.84-82.667-178.67-82.667-87.828 0-152.67 30.999-194.67 92.832-35.994 53.499-53.333 126.17-51.659 218.16h343c-1.0026 36.84-10.496 67.002-28.663 90.339-20.172 25.83-47.832 38.661-83.173 38.661-43.831 0-72.834-24.661-87.165-73.993l-136.99 22.996c35.828 102.66 111 154 225.49 154 90.504 0 157.33-29.5 200.17-88.499 34.163-47.004 51.337-106.67 51.337-179.17zm-143.51-48.329h-204.5c1.0026-34.007 9.5021-62.007 25.342-84.341 18.498-25.158 43.997-37.659 76.495-37.659 33.004 0 58.834 12.326 77.332 37.162 17.339 22.334 25.673 50.5 25.333 84.838z"/></glyph><glyph horiz-adv-x="604" unicode="ӈ"><path d="m538 44.337c0-85.841-18.507-149.5-55.338-190.83-37.834-42.341-97.33-63.507-178.5-63.507-62.835 0-112.66 9.5021-149.16 28.672-42.672 22.831-72.337 60.83-89.005 114.49l137 22.84c13.494-36.003 45.165-54.005 94.993-54.005 41.835 0 70.507 14.837 86.337 44.337 11.167 20.835 16.668 53.499 16.668 98.001v173.66h-198v-218h-137v519h137v-190h198v190h137v-474.66z"/></glyph><glyph horiz-adv-x="580" unicode="ҷ"><path d="m570-137h-111v137h-80v207.5c-53.499-14.331-94.165-21.497-122.17-21.497-37.834 0-73 7.828-105.5 23.493-37.502 17.505-63.001 42-76.835 73.174-12.335 28.332-18.498 65.825-18.498 112.33v124h139v-124.16c0-25.673 1.8305-44.502 5.3352-56.175 5.8319-17.992 17.33-31.992 34.163-42.332 16.999-10.164 37.834-15.334 62.504-15.334 24.33 0 51.668 5.5007 81.996 16.668v221.34h137v-408h53.995v-248z"/></glyph><glyph horiz-adv-x="1126" unicode="Ҧ"><path d="m1065 170.5c0-115.84-18.664-203.84-56.166-264.01-47.998-77.663-129.83-116.5-245.33-116.5-136.66 0-224.5 49.332-263.5 148.17l145.01 22.831c4.1669-13.835 14.497-26.501 31.165-37.668 21.672-14.166 48.504-21.331 80.671-21.331 108.83 0 163.16 78.335 163.16 235 0 140.66-45.165 211-135.5 211-46.995 0-93.494-13.163-139.5-39.498v-308.5h-145.01v595h-279.99v-595h-145.01v716h570v-288.5c53.664 26.335 108.5 39.498 164.66 39.498 77.332 0 139.17-26.666 185.67-80.165 46.499-53.499 69.66-125.67 69.66-216.33z"/></glyph><glyph horiz-adv-x="598" unicode="ҕ"><path d="m577 44.337c0-77.166-21.828-138.34-65.328-183.5-45.34-47.17-108.17-70.838-188.51-70.838-64.997 0-115.83 8.665-152.16 25.839-46.333 21.662-81.168 60.83-105 117.33l137 22.84c12.666-36.003 50.666-54.005 113.83-54.005 79.503 0 119.17 47.501 119.17 142.34 0 95.83-39.664 143.66-119.17 143.66-39.664 0-77.663-7.1657-113.83-21.497v-166.5h-137v519h370v-111h-233v-124.17c40.326 10.836 80.331 16.171 120.16 16.171 80.34 0 143.17-23.668 188.34-71.169 43.665-46.002 65.494-107.49 65.494-184.5z"/></glyph><glyph horiz-adv-x="0" unicode="҄"><path d="m164 604h-42c0 18.829-5.1696 34.329-15.665 46.664-11.333 13.503-26.004 20.329-44.337 20.329-8.9962 0-33.832-11.167-74.499-33.492-40.501-22.334-72.503-33.501-95.996-33.501h-55.504v89.998h55.67c17.827 0 43.665 8.0027 77.663 23.999 33.832 15.996 61.17 23.999 82.005 23.999 34.163 0 61.492-12.832 81.996-38.496 20.504-25.673 30.668-58.834 30.668-99.5z"/></glyph><glyph horiz-adv-x="610" unicode="ѳ"><path d="m575 260c0-78.666-24.67-143.66-74.168-195.16-50.5-51.834-114.67-77.829-192.83-77.829-49.506 0-94.506 10.661-135.17 31.827-43.665 22.5-76.661 54.501-99.16 96.171-22.509 41.504-33.667 91.829-33.667 150.84 0 47.998 11.158 92.491 33.667 133.5 23.493 42.497 55.495 74.83 96.493 97.164 40.832 22.334 86.337 33.501 136.84 33.501 79.503 0 144-25.167 193.5-75.336 49.663-50.169 74.499-115.17 74.499-194.67zm-144.5 43.5c-5.8319 34.172-19.004 61.17-39.498 81.333-22.168 22.168-50.003 33.17-83.504 33.17-35.828 0-65.834-13.669-90.33-40.998-16.833-18.839-28-43.334-33.17-73.506 17.339-12.998 33.832-19.501 49.838-19.501 21.828 0 46.664 6.5034 74.83 19.501 28.166 13.007 50.831 19.501 68.17 19.501 20.163 0 37.999-6.4942 53.664-19.501zm0.49672-83.992c-15.996 12.998-33.998 19.492-54.161 19.492-17.339 0-40.004-6.4942-68.17-19.492-28.166-13.007-53.002-19.501-74.83-19.501-16.005 0-32.498 6.4942-49.838 19.501 5.1696-35.175 18.002-63.672 38.505-85.169 22.159-23.502 50.5-35.332 84.994-35.332 34.504 0 62.835 11.829 85.004 35.332 20.494 21.497 33.336 49.828 38.496 85.169z"/></glyph><glyph horiz-adv-x="869" unicode="Ѣ"><path d="m823 212.5c0-42-10.339-80.506-31.165-115.67-22.5-37.502-52.671-63.663-90.339-78.335-32.333-12.335-78.169-18.498-137.66-18.498h-337.83v523h-213v91.001h213v102h145.01v-102h212.99v-91.001h-212.99v-92.997h193.16c75.998 0 136.67-16.833 181.84-50.334 51.328-38.174 77.001-93.834 77.001-167.16zm-149 1.9961c0 39.167-17.339 65.834-52.174 80.496-22.831 9.3365-57.5 14-104 14h-146.83v-188h140.5c37.999 0 63.498 1.0026 76.164 2.8332 28.332 5.004 50.169 16.005 65.834 33.501 13.669 15.168 20.504 34.172 20.504 57.169z"/></glyph><glyph horiz-adv-x="556" unicode="ё"><path d="m372 164 137-22.996c-17.505-50.169-45.33-88.334-83.164-114.67-37.999-26.17-85.5-39.333-142.34-39.333-90.164 0-157 29.5-200.17 88.499-34.163 47.336-51.328 107-51.328 179.17 0 85.997 22.5 153.5 67.333 202.16 44.834 48.835 101.66 73.165 170.33 73.165 77.001 0 137.84-25.498 182.5-76.504 44.502-50.997 65.834-129.17 63.838-234.5h-343c1.0026-40.667 12.004-72.328 33.17-95.002 21-22.665 47.336-33.998 78.666-33.998 21.497 0 39.498 5.8319 54.005 17.505 14.662 11.664 25.664 30.493 33.161 56.497zm8.0027 139c-1.0026 39.83-11.167 70.166-30.668 90.836-19.501 20.835-43.169 31.165-71.169 31.165-29.831 0-54.501-11.001-73.993-32.83-19.501-21.837-29.003-51.668-28.672-89.171h204.5zm-269.5 283v118h118v-118h-118zm210.5 0v118h118v-118h-118z"/></glyph><glyph horiz-adv-x="610" unicode="р"><path d="m67.996 519h128.01v-76.164c16.668 25.995 39.002 46.995 67.333 63.166 28.332 15.996 59.827 23.999 94.331 23.999 60.168 0 111.33-23.668 153.33-71.004 42-47.161 63.001-113.16 63.001-197.5 0-86.825-21.166-154.16-63.498-202.33-42.332-48.164-93.669-72.162-154-72.162-28.663 0-54.667 5.6663-77.994 17.164-23.171 11.333-47.842 30.834-73.506 58.503v-259.66h-137v716zm135.01-251.5c0-58.503 11.498-101.67 34.66-129.67 23.006-27.835 51.171-41.835 84.167-41.835 31.836 0 58.337 12.841 79.503 38.505s31.67 67.664 31.67 126.17c0 54.667-10.836 95.168-32.673 121.67-21.662 26.492-48.66 39.664-80.828 39.664-33.501 0-61.336-12.998-83.339-39.002-22.159-25.995-33.161-64.5-33.161-115.5z"/></glyph><glyph horiz-adv-x="718" unicode="Я"><path d="m501 0v299h-29.334c-45.827 0-77.994-6.8345-96.833-20.494-18.829-13.503-50.831-54.336-96.327-122.18l-103.67-156.33h-172.84l87.34 139.67c34.329 55.495 61.832 94.331 82.161 116.5 20.504 22.334 46.167 42.332 76.835 59.827-66.496 10.505-114.5 33.667-144 69.67-29.5 36.003-44.328 78.997-44.328 129.17 0 43.665 11.001 82.336 32.995 116 22.003 33.667 51.006 56.332 87 67.83 36.003 11.498 89.833 17.339 161.5 17.339h304.51v-716h-145.01zm0 595h-112.83c-57.334 0-95.002-1.3338-113-3.8266-18.002-2.6676-33.667-11.507-46.664-26.501-12.998-15.003-19.501-34.504-19.501-58.668 0-25.167 6.3378-45.165 18.829-60.002 12.501-14.837 28.506-23.999 47.842-27.669 19.326-3.4954 58.825-5.3352 118.33-5.3352h107v182z"/></glyph><glyph horiz-adv-x="777" unicode="О"><path d="m43.003 353.66c0 73 11.001 134.34 32.83 184 16.171 36.5 38.505 69.338 66.671 98.332 28.166 29.003 58.999 50.5 92.5 64.675 44.659 18.829 96.162 28.332 154.5 28.332 105.66 0 190-32.839 253.49-98.332 63.341-65.668 95.002-156.84 95.002-273.67 0-115.84-31.496-206.51-94.331-271.84-62.835-65.503-147-98.167-252.17-98.167-106.5 0-191.33 32.498-254.16 97.661-62.835 65.006-94.331 154.67-94.331 269zm149 4.8384c0-81.168 18.829-142.67 56.332-184.67 37.502-41.835 85.169-62.835 142.84-62.835 57.831 0 105.17 20.835 142.33 62.338 37.006 41.66 55.504 104 55.504 187.16 0 82.17-18.002 143.5-54.17 183.83-35.994 40.501-83.826 60.664-143.66 60.664-59.671 0-107.83-20.494-144.33-61.327-36.5-41.007-54.832-102.67-54.832-185.17z"/></glyph><glyph horiz-adv-x="718" unicode="Ѝ"><path d="m74.996 716h135.01v-476.67l289.99 476.67h144v-716h-135v469l-290-469h-144v716zm342 64.997h-85.997l-135 146h153l67.996-146z"/></glyph><glyph horiz-adv-x="556" unicode="ÿ"><path d="m5.9974 519h146l124.5-368.16 121.5 368.16h142l-183-499.5-33.004-90.164c-12.17-30.171-23.668-53.168-34.669-69.173-10.827-15.831-23.493-28.828-37.668-38.661-14.166-9.9988-31.661-17.67-52.496-23.171-20.669-5.5007-44.162-8.3339-70.332-8.3339-26.335 0-52.33 2.8332-77.838 8.3339l-11.995 107.01c21.497-4.1669 40.998-6.3378 58.328-6.3378 32.002 0 55.67 9.3365 71.004 28.166 15.334 18.829 27.163 42.838 35.332 71.831l-197.67 520zm115.51 67.002v118h118v-118h-118zm210.5 0v118h118v-118h-118z"/></glyph><glyph horiz-adv-x="277" unicode="î"><path d="m71.997 0v519h137v-519h-137zm-91.001 586 102.51 143.99h126.33l101.16-143.99h-110l-56.497 73-52.496-73h-111.01z"/></glyph><glyph horiz-adv-x="667" unicode="Ý"><path d="m261 0v301.34l-262.5 414.67h169.5l169.34-283.51 164.83 283.51h166.34l-262.51-415.67v-300.33h-145zm-1.9961 781 67.996 146h153l-135-146h-85.997z"/></glyph><glyph horiz-adv-x="277" unicode="Ì"><path d="m67.996 0v716h145.01v-716h-145.01zm172 781h-85.997l-135 146h153l67.996-146z"/></glyph><glyph horiz-adv-x="556" unicode="»"><path d="m243 33.998 127 220.84-127 225.16h107.01l155-225.16-155-220.84h-107.01zm-192 0 127 220.84-127 225.16h107.01l155-225.16-155-220.84h-107.01z"/></glyph><glyph horiz-adv-x="370" unicode="ª"><path d="m124 611-91.994 18.995c7.4968 32.498 22.5 57.169 45.165 73.837 22.5 16.833 56.838 25.167 102.66 25.167 47.832 0 83.835-6.3378 108.17-19.004 16.005-8.1683 27.835-22.665 35.672-43.5 4.8292-12.998 7.3312-37.999 7.3312-74.996v-116.5c0-33.832 1.1682-56.507 3.3299-68.17 2.1708-11.498 6.0066-22.831 11.673-33.832h-93.503c-4.1669 8.4994-8.0027 19.998-11.167 34.669-28.663-29.168-63.663-43.665-105.33-43.665-36.996 0-66 9.8332-86.834 29.5-20.835 19.666-31.165 44.999-31.165 75.833 0 22.159 5.1696 40.832 15.334 56.166 10.33 15.334 25.333 27.329 45.165 36.159 14.497 6.1722 45.165 13.835 91.498 22.84 25.673 5.3352 46.002 10.661 61.005 16.162 0 4.4981-0.16557 7.8372-0.50592 9.9988-0.33115 15.5-3.1643 25.673-8.665 30.337-7.828 6.6689-21.331 9.9988-40.501 9.9988-16.833 0-29.5-2.8332-37.834-8.3339-6.163-4.1669-12.666-14.828-19.501-31.661zm107.01-75.17c-7.1657-4.3325-17.174-7.6624-30.171-10.33-35-7.506-55.835-13.172-62.329-17.174-13.007-8.1591-19.501-18.664-19.501-31.661 0-10.164 4.3325-19.335 13.163-27.504 8.665-8.1683 20.172-12.16 33.998-12.16 18.839 0 34.338 6.8253 46.508 20.329 12.16 13.503 18.333 33.17 18.333 58.834v19.666z"/></glyph><glyph horiz-adv-x="777" unicode="w"><path d="m168 0-164 519h133.33l97.164-340.16 89.502 340.16h132.33l86.172-340.16 99.169 340.16h135.33l-166.67-519h-131.67l-89.161 333.83-88.002-333.83h-133.5z"/></glyph><glyph horiz-adv-x="332" unicode="f"><path d="m12.004 519h75.998v39.167c0 43.665 4.6637 76.329 14 97.836 9.3273 21.662 26.501 39.167 51.493 52.662 25.167 13.503 56.838 20.338 95.168 20.338 39.167 0 77.672-5.8319 115.34-17.505l-17.505-95.334c-22.334 5.1696-43.831 7.8372-64.5 7.8372-20.329 0-34.835-4.6637-43.665-14-8.8306-9.3365-13.338-27.338-13.338-54.005v-36.996h103v-108h-103v-411h-136.99v411h-75.998v108z"/></glyph><glyph horiz-adv-x="722" unicode="U"><path d="m73 716h145v-388c0-61.667 1.8397-101.51 5.3352-119.66 6.1722-29.334 20.669-53.002 43.665-70.672 23.171-17.836 54.667-26.666 94.671-26.666 40.501 0 71.169 8.3339 91.829 25.167 20.669 16.833 33.004 37.337 37.171 61.832 4.1669 24.505 6.3286 65.006 6.3286 121.67v396.34h145.01v-376.5c0-85.997-3.8358-146.84-11.673-182.33-7.828-35.497-22.159-65.503-43.16-89.998-20.835-24.505-48.835-43.831-83.835-58.337-35.166-14.497-80.837-21.828-137.33-21.828-68.17 0-119.83 7.828-155 23.668-35.166 15.831-62.992 36.334-83.495 61.667-20.504 25.333-33.832 51.659-40.336 79.494-9.5021 40.998-14.166 101.67-14.166 181.84v382.34z"/></glyph><glyph horiz-adv-x="722" unicode="D"><path d="m73 716h263.67c59.496 0 104.84-4.5073 136-13.669 41.835-12.335 77.838-34.338 107.67-66 29.996-31.505 52.662-70.166 68.327-116 15.509-45.671 23.337-102.17 23.337-169.17 0-58.999-7.3312-109.66-22.003-152.33-17.827-52.165-43.325-94.331-76.495-126.5-25.002-24.505-58.834-43.5-101.33-57.169-31.836-10.164-74.333-15.168-127.67-15.168h-271.5v716zm145-121.01v-474h107.5c40.17 0 69.164 2.3364 87 6.8345 23.502 5.8319 42.838 15.831 58.172 29.831 15.5 14 28 37.006 37.659 69.007 9.8332 31.992 14.672 75.833 14.672 131.16 0 55.338-4.8384 97.67-14.672 127.34-9.6585 29.665-23.328 52.662-40.832 69.329-17.496 16.502-39.664 27.835-66.662 33.667-19.998 4.5073-59.505 6.8345-118.16 6.8345h-64.675z"/></glyph><glyph horiz-adv-x="556" unicode="3"><path d="m37.999 189.83 133 16.171c4.1669-33.998 15.5-60.002 33.998-78.004 18.498-18.002 40.832-26.998 67.002-26.998 28.166 0 51.834 10.836 71.169 32.333 19.16 21.497 28.828 50.5 28.828 87.165 0 34.504-9.1617 61.998-27.66 82.17-18.507 20.163-41.007 30.328-67.674 30.328-17.496 0-38.33-3.4954-62.66-10.33l15.159 111.33c37.006-0.99344 65.172 7.1748 84.672 24.339 19.501 16.999 29.168 39.83 29.168 68.336 0 24.164-7.1748 43.325-21.506 57.831-14.331 14.331-33.336 21.497-57.169 21.497-23.493 0-43.5-8.1683-59.993-24.496-16.668-16.337-26.666-40.17-30.337-71.5l-126 21.497c8.8398 43.665 22.003 78.5 39.839 104.67 17.661 25.995 42.497 46.499 74.168 61.492 31.661 14.837 67.333 22.334 106.67 22.334 67.333 0 121.33-21.497 162-64.666 33.501-35.332 50.334-75.327 50.334-119.83 0-63.001-34.338-113.5-103.17-151 41.007-8.8306 73.671-28.497 98.342-59.165 24.496-30.668 36.831-67.664 36.831-111 0-62.835-23.006-116.5-68.833-160.84-45.836-44.328-102.84-66.496-171.17-66.496-64.666 0-118.34 18.664-160.84 56.166-42.663 37.328-67.333 86.163-74.168 146.66z"/></glyph><glyph horiz-adv-x="474" unicode='"'><path d="m80.837 462-25.839 133.17v120.84h149v-120.84l-22.325-133.17h-100.83zm221 0-25.83 133.17v120.84h149v-120.84l-22.334-133.17h-100.83z"/></glyph><glyph horiz-adv-x="978" unicode="∟"><path d="m176.83 624.5h48.835v-575.66h576.66v-48.835h-625.5v624.5z"/></glyph><glyph horiz-adv-x="834" unicode="⅓"><path d="m243 355h-92.997v251c-30.668-21.166-65.668-37.162-105-47.998v75.998c30.999 8.8306 57.334 21.331 78.666 37.999 21.331 16.502 36.003 34.163 43.831 53.002h75.502v-370zm1.4994-381h-77.663l423.83 751h77.672l-423.84-751zm280.5 113.17 89.998 9.8332c5.1696-35.332 23.337-53.002 54.501-53.002 35 0 52.505 17.505 52.505 52.671 0 14-4.6728 25.498-13.835 34.669-9.1709 9.1617-21.166 13.66-36.003 13.66-9.8332 0-24.496-2.4928-44.162-7.3312l11.001 71.335c30.493-0.66229 50.325 5.6663 59.662 19.17 4.1669 5.5007 6.3378 11.995 6.3378 19.501 0 21.497-13.338 32.333-40.17 32.333-26.998 0-43.003-16.005-47.832-48.007l-87 12.666c8.1683 33.667 20.163 57.675 36.003 72.006 24.661 22.168 58.328 33.336 101.16 33.336 38.827 0 70.663-10.174 95.334-30.337 23.668-19.335 35.497-42.497 35.497-69.504 0-11.995-3.3299-23.493-10.164-34.329-9.5021-15.003-21.837-26.998-37.171-36.169 44.834-15.831 67.333-44.999 67.333-87.165 0-32.167-13.669-59.671-40.998-82.502-28.497-23.999-64.5-36.003-107.67-36.003-40.998 0-74.168 10.174-99.5 30.502-25.333 20.338-40.326 47.998-44.834 82.667z"/></glyph><glyph horiz-adv-x="943" unicode="₩"><path d="m943 163h-134.33l-39.673-163h-153.33l-43.5 163h-198.16l-43.169-163h-156.84l-39.002 163h-132v126h102l-30.834 129h-71.169v126h40.998l-40.998 172h148l37.834-172h155.33l45.836 172h172l43.16-172h154.51l37.659 172h145.67l-41.826-172h41.826v-126h-72.328l-31.339-129h103.67v-126zm-211 255h-95.002l32.333-129h34.338l28.332 129zm-193.34-129-34.329 129h-62.67l-34.163-129h131.16zm-228.17 129h-94l28.341-129h31.33l34.329 129z"/></glyph><glyph horiz-adv-x="239" unicode="′"><path d="m70.001 462 1.9961 133.17 26.004 120.84h149l-25.995-120.84-51.006-133.17h-99.997z"/></glyph><glyph horiz-adv-x="556" unicode="‡"><path d="m213-171v163h-180v114.01h180v320h-180v114h180v167h128v-167h176v-114h-176v-320h176v-114.01h-176v-163h-128z"/></glyph><glyph horiz-adv-x="978" unicode="Ӹ"><path d="m77.001 716h145v-286h193.17c50.666 0 94.331-7.0001 130.83-20.835 36.5-13.835 67.002-38.505 91.507-74.168 24.33-35.672 36.5-76.67 36.5-123 0-48.495-12.666-90.164-38.008-125.33-25.498-35-53.664-58.172-84.829-69.504-30.999-11.498-76.504-17.164-136.33-17.164h-337.83v716zm145-595.01h141c44.834 0 76.164 2.1708 94 6.5034 17.661 4.3325 33.501 14.331 47.336 29.831 13.825 15.5 20.66 34.338 20.66 56.672 0 31.661-11.333 55.495-33.832 71.325-22.665 15.84-63.498 23.668-122.33 23.668h-146.84v-188zm535 595.01h145v-716h-145v716zm-436.5 64.997v118h118v-118h-118zm210.5 0v118h118v-118h-118z"/></glyph><glyph horiz-adv-x="610" unicode="ӧ"><path d="m40.004 265.84c0 45.662 11.158 89.833 33.667 132.5 22.5 42.838 54.326 75.336 95.499 97.836 41.163 22.5 87 33.832 137.83 33.832 78.5 0 142.67-25.498 192.83-76.504 50.169-51.162 75.17-115.5 75.17-193.5 0-78.666-25.333-143.83-75.833-195.5-50.666-51.668-114.34-77.498-191.16-77.498-47.501 0-92.841 10.827-136 32.333-43.003 21.497-75.833 53.002-98.332 94.662-22.509 41.504-33.667 92.169-33.667 151.84zm141-7.3404c0-51.493 12.17-91.001 36.5-118.33 24.505-27.504 54.501-41.163 90.33-41.163 35.672 0 65.668 13.66 89.842 41.163 24.164 27.329 36.325 67.168 36.325 119.33 0 50.831-12.16 89.998-36.325 117.34-24.174 27.494-54.17 41.163-89.842 41.163-35.828 0-65.825-13.669-90.33-41.163-24.33-27.338-36.5-66.836-36.5-118.34zm-40.501 327.5v118h118v-118h-118zm210.5 0v118h118v-118h-118z"/></glyph><glyph horiz-adv-x="667" unicode="Ӗ"><path d="m73 0v716h530v-121.01h-385v-159h358.01v-121h-358.01v-194.01h399v-121h-544zm420 923c-3.8358-43.831-19.335-78.5-46.167-104-26.841-25.333-62.338-37.999-106.34-37.999-43.665 0-79.006 12.832-106 38.33-27.163 25.498-42.663 60.002-46.499 103.67h67.002c4.4981-46.664 32.995-70.001 85.5-70.001 52.496 0 81.002 23.337 85.5 70.001h67.002z"/></glyph><glyph horiz-adv-x="701" unicode="Ӆ"><path d="m706 121-94.993-277h-120l60.002 156h-70.001v595h-215v-305.67c0-76.661-0.83707-123.17-2.502-139-6.1722-60.664-22.334-102.33-48.835-125-22.665-19.501-58.162-29.334-106.34-29.334-16.999 0-47.667 1.6649-92.335 4.8384v112.17l32.333-0.50592c30.502-0.33115 51.006 4.0014 61.336 13.172 10.164 9.1617 15.334 28.828 15.334 58.999l-0.49672 122.99v408.34h501.5v-595.01h80z"/></glyph><glyph horiz-adv-x="852" unicode="Ҵ"><path d="m827-156h-121.01v156h-509.99v595h-175v121.01h495v-121.01h-175v-474h281v595.01h145.01v-595.01h60.002v-277z"/></glyph><glyph horiz-adv-x="604" unicode="ң"><path d="m591-137h-111v137h-80v218h-197v-218h-137v519h137v-190h197v190h137v-408h53.995v-248z"/></glyph><glyph horiz-adv-x="566" unicode="Ғ"><path d="m565 596h-340v-192h144v-91.001h-144v-313h-145v313h-81.996v91.001h81.996v312h485v-120z"/></glyph><glyph horiz-adv-x="556" unicode="ҁ"><path d="m524 364.34-135.01-24.339c-9.1617 54.667-40.326 82.005-93.66 82.005-74.839 0-112.34-51.171-112.34-153.67 0-112.17 38.174-168.33 114.5-168.33 22.665 0 43.997 3.8358 63.498 11.673v-308.67h-136.99v191.99c-58.999 13.007-104.5 43.675-136.51 91.838-30.328 45.496-45.496 102.83-45.496 171.83 0 82.005 21.166 147 63.498 195.17 44.502 50.831 107.17 76.164 187.83 76.164 121.5 0 198.5-55.164 230.67-165.67z"/></glyph><glyph horiz-adv-x="809" unicode="Ѱ"><path d="m767 524.67c0-66-5.9974-117.16-18.002-153.66-16.337-50.675-47.17-90.504-92.666-119-41.504-26.335-101.33-40.667-179.34-43.003v-209h-145v209c-110.34 0-178 50.334-202.67 150.84l-87.331 356.17h145l87.34-331c3.4954-13.669 10.496-25.508 20.66-35.506 11.167-11.001 23.502-16.502 37.006-16.502v383.01h145v-383.01c70.166 1.3338 113.83 29.003 131 83.173 9.3273 29.831 13.991 74.168 13.991 133.17v166.67h145.01v-191.34z"/></glyph><glyph horiz-adv-x="604" unicode="џ"><path d="m357 0v-137h-110v137h-181v519h137v-408h198v408h137v-519h-181z"/></glyph><glyph horiz-adv-x="854" unicode="ю"><path d="m70.001 519h137v-210h110c7.1657 66.34 32.333 119.84 75.502 160.34 43.169 40.501 101 60.664 173.33 60.664 72.834 0 132.67-23.668 179.34-71.004 46.499-47.161 69.835-115.33 69.835-204.33 0-52.34-8.665-98.001-26.17-137-17.33-39.167-43.997-70.663-79.825-94.671-35.838-23.999-82.667-35.994-140.34-35.994-82.998 0-145 22.665-185.66 67.996-40.667 45.34-62.67 93.669-66 145.01h-110v-200h-137v519zm494-95.996c-38.33 0-66.165-12.335-83.67-36.84-17.496-24.496-26.326-63.498-26.326-117.16 0-68.667 9.3273-115 28.166-139 18.829-23.999 47.501-36.003 85.832-36.003 35.332 0 61.832 13.503 79.503 40.501 17.661 26.998 26.501 67.333 26.501 121.33 0 66-9.5021 110.34-28.672 133.17-19.17 22.674-46.333 34.007-81.333 34.007z"/></glyph><glyph horiz-adv-x="604" unicode="н"><path d="m66 519h137v-190h198v190h137v-519h-137v218h-198v-218h-137v519z"/></glyph><glyph horiz-adv-x="718" unicode="Ь"><path d="m75.998 716h145.01v-286h193.16c91.001 0 156.84-21.341 197.67-64.003 40.832-42.663 61.17-93.834 61.17-153.5 0-48.835-12.335-90.339-37.171-124.5-24.661-34.338-52.827-57.5-84.663-69.67-31.67-12.17-77.498-18.333-137.33-18.333h-337.83v716zm145.01-595.01h140.5c45.496 0 77.166 2.1708 94.662 6.5034 17.505 4.3325 33.336 14.331 47.17 29.831s20.669 34.504 20.669 57.169c0 32.664-11.838 56.497-35.341 71.666-23.659 15.168-63.829 22.831-120.83 22.831h-146.83v-188z"/></glyph><glyph horiz-adv-x="701" unicode="Л"><path d="m124.5 716h501.5v-716h-145v595h-215v-305.67c0-87.496-2.9987-148.67-8.8398-183.16-5.8319-34.669-19.998-61.832-42.663-81.168s-57.997-29.003-106.17-29.003c-16.999 0-47.667 1.6649-92.335 4.8384v112.17l32.333-0.50592c30.171 0 50.675 4.0014 61.005 12.17 10.496 8.1683 15.665 28.166 15.665 60.002l-0.49672 122.99v408.34z"/></glyph><glyph horiz-adv-x="1062" unicode="Њ"><path d="m561 434h193.83c51.006 0 94.331-6.8253 129.84-20.494 35.497-13.669 65.834-38.165 91.332-73.165 25.333-35.166 37.999-77.507 37.999-127 0-49.166-12.17-90.67-36.665-124.67-24.505-33.998-52.671-57.334-84.672-69.835-31.827-12.492-77.994-18.829-138.33-18.829h-338.33v313h-194.01v-313h-145v716h145v-282.01h194.01v282.01h145v-282.01zm0-313h141.34c45.496 0 77.166 2.1708 94.662 6.5034 17.67 4.4981 33.336 14.662 47.17 30.668 13.835 15.996 20.835 35.663 20.835 58.668 0 32.995-11.673 57.325-35.166 72.834-23.502 15.5-63.838 23.328-121.17 23.328h-147.66v-192z"/></glyph><glyph horiz-adv-x="610" unicode="ü"><path d="m415 0v77.663c-19.004-27.66-43.831-49.663-74.664-66.165-30.834-16.327-63.332-24.496-97.504-24.496-35 0-66.331 7.6624-94 22.996-27.835 15.334-47.832 37.006-60.168 64.666-12.501 27.835-18.664 66.165-18.664 115.17v329.17h137v-239c0-73.174 2.4928-117.83 7.6624-134.34 5.004-16.502 14.166-29.665 27.669-39.167 13.329-9.6677 30.328-14.497 50.997-14.497 23.502 0 44.502 6.4942 63.166 19.326 18.664 12.841 31.339 28.837 38.165 48.007 6.8345 19.16 10.339 65.834 10.339 140.33v219.33h136.99v-519h-127zm-267.5 586v118h118v-118h-118zm210.5 0v118h118v-118h-118z"/></glyph><glyph horiz-adv-x="556" unicode="ë"><path d="m372 164 137-22.996c-17.505-50.169-45.33-88.334-83.164-114.67-37.999-26.17-85.5-39.333-142.34-39.333-90.164 0-157 29.5-200.17 88.499-34.163 47.336-51.328 107-51.328 179.17 0 85.997 22.5 153.5 67.333 202.16 44.834 48.835 101.66 73.165 170.33 73.165 77.001 0 137.84-25.498 182.5-76.504 44.502-50.997 65.834-129.17 63.838-234.5h-343c1.0026-40.667 12.004-72.328 33.17-95.002 21-22.665 47.336-33.998 78.666-33.998 21.497 0 39.498 5.8319 54.005 17.505 14.662 11.664 25.664 30.493 33.161 56.497zm8.0027 139c-1.0026 39.83-11.167 70.166-30.668 90.836-19.501 20.835-43.169 31.165-71.169 31.165-29.831 0-54.501-11.001-73.993-32.83-19.501-21.837-29.003-51.668-28.672-89.171h204.5zm-267 283v118h118v-118h-118zm210.5 0v118h118v-118h-118z"/></glyph><glyph horiz-adv-x="722" unicode="Ú"><path d="m73 716h145v-388c0-61.667 1.8397-101.51 5.3352-119.66 6.1722-29.334 20.669-53.002 43.665-70.672 23.171-17.836 54.667-26.666 94.671-26.666 40.501 0 71.169 8.3339 91.829 25.167 20.669 16.833 33.004 37.337 37.171 61.832 4.1669 24.505 6.3286 65.006 6.3286 121.67v396.34h145.01v-376.5c0-85.997-3.8358-146.84-11.673-182.33-7.828-35.497-22.159-65.503-43.16-89.998-20.835-24.505-48.835-43.831-83.835-58.337-35.166-14.497-80.837-21.828-137.33-21.828-68.17 0-119.83 7.828-155 23.668-35.166 15.831-62.992 36.334-83.495 61.667-20.504 25.333-33.832 51.659-40.336 79.494-9.5021 40.998-14.166 101.67-14.166 181.84v382.34zm203 64.997 67.996 146h153l-135-146h-85.997z"/></glyph><glyph horiz-adv-x="667" unicode="É"><path d="m73 0v716h530v-121.01h-385v-159h358.01v-121h-358.01v-194.01h399v-121h-544zm197 781 67.996 146h153l-135-146h-85.997z"/></glyph><glyph horiz-adv-x="332" unicode="¸"><path d="m18.498-197v57.325c33.667-3.4954 64.5-5.326 92.666-5.326 29.003 0 50.666 5.1604 64.666 15.665 10.836 7.828 16.171 17.836 16.171 30.328 0 11.001-5.004 20.669-15.168 28.837s-25.83 12.17-46.995 12.17c-21 0-42.341-3.3391-64.334-9.8332l12.832 48.495c25.333 9.0054 52.662 13.338 81.996 13.338 40.832 0 71.666-9.0054 92.841-26.832 21.166-18.002 31.827-39.839 31.827-65.503 0-28.837-11.664-51.999-35.166-70.001-31.661-24.496-77.001-36.665-136-36.665-42 0-73.827 2.6676-95.334 8.0027z"/></glyph><glyph horiz-adv-x="556" unicode="§"><path d="m481 564-134-14c-1.3338 23.999-8.3339 42.332-21 54.998-12.666 12.666-30.328 19.004-52.827 19.004-20.835 0-36.831-4.6637-47.832-13.835-10.836-9.1617-16.337-19.501-16.337-31.165 0-16.005 7.4968-31.165 22.334-45.836 9.9988-9.8332 43.169-32.995 99.5-69.495 56.166-36.5 93.503-62.504 111.5-78.169 28.166-23.668 48.338-47.336 60.508-70.498 12.16-23.337 18.158-49.166 18.158-77.507 0-30.328-7.3312-58.162-22.159-83.826-14.837-25.508-37.006-48.669-66.671-69.504 19.832-18.333 34.504-37.834 44.171-58.503 9.8332-20.66 14.662-42.497 14.662-65.668 0-48.164-18.002-88.499-54.17-121.16-35.994-32.498-87.828-48.835-155.49-48.835-65.006 0-117 16.171-156.01 48.338-39.167 32.167-62.164 74.996-69.329 128.66l134 16.005c5.8411-29.168 16.833-51.171 33.17-65.834 16.337-14.837 36.996-22.168 61.998-22.168 21.341 0 38.34 5.6663 50.84 16.833 12.666 11.333 18.995 24.836 18.995 40.832 0 15.334-5.9974 29.003-18.002 40.998-12.335 12.17-55.495 41.835-129.66 89.171-74.168 47.501-122.33 86.834-144.83 118-22.334 31.339-33.501 66.331-33.501 105 0 32.002 7.3312 61.667 22.159 89.005 14.837 27.329 37.668 49.828 69.007 67.499-16.337 17.496-28.506 35.332-36.84 53.664-8.1591 18.167-12.326 36.831-12.326 55.67 0 43.997 17.164 81.159 51.328 111.66 34.172 30.502 82.336 45.671 144.17 45.671 63.498 0 113.5-15.334 150-45.836 36.5-30.502 57.997-70.166 64.5-119.17zm-122.33-420.34c14.331 13.172 25.002 25.508 31.827 37.502 7.0001 11.838 10.505 23.337 10.505 34.338 0 10.827-3.6702 21.828-11.167 33.326-7.4968 11.333-27.835 29.168-61.336 53.673l-132.66 96.667c-11.001-6.5034-20.669-15.674-29.168-27.835-8.4994-12.004-12.666-24.836-12.666-38.505 0-32.995 21.828-64.16 65.668-93.834l139-95.334z"/></glyph><glyph horiz-adv-x="332" unicode="t"><path d="m309 519v-109h-94v-210.17c0-42.663 0.83707-67.499 2.6676-74.499 1.8397-7.0001 5.8319-12.832 12.335-17.496 6.3378-4.4981 14-6.8345 23.171-6.8345 12.832 0 31.165 4.3325 55.329 13.163l11.498-106.67c-31.836-13.66-67.83-20.494-108.17-20.494-24.67 0-46.83 4.1669-66.662 12.501-19.841 8.3339-34.338 19.16-43.509 32.333-9.3273 13.329-15.665 31.165-19.326 53.83-2.8332 15.996-4.3325 48.338-4.3325 97.164v227.17h-63.001v109h63.001v103l136.99 81.002v-184h94z"/></glyph><glyph horiz-adv-x="556" unicode="c"><path d="m524 365-135.01-23.999c-4.4981 26.832-14.828 47.004-30.999 60.664-16.162 13.503-36.996 20.338-62.66 20.338-34.172 0-61.501-11.838-81.839-35.497-20.329-23.668-30.502-63.166-30.502-118.67 0-61.667 10.339-105.17 31.008-130.66 20.66-25.498 48.329-38.165 82.998-38.165 25.995 0 47.336 7.4968 63.829 22.334 16.668 14.828 28.332 40.326 35.166 76.661l135.01-22.996c-14-61.998-40.842-108.84-80.506-140.5-39.664-31.67-92.832-47.501-159.67-47.501-75.667 0-136.17 23.999-181.16 71.831-45.165 47.998-67.664 114.33-67.664 199.17 0 85.832 22.665 152.5 67.83 200.34 45.174 47.832 106.34 71.666 183.5 71.666 63.001 0 113.17-13.669 150.5-40.832 37.171-27.172 63.838-68.502 80.174-124.17z"/></glyph><glyph horiz-adv-x="722" unicode="R"><path d="m73 0v716h304.5c76.504 0 132.16-6.5034 166.83-19.335 34.835-12.832 62.504-35.672 83.339-68.502 20.826-33.004 31.33-70.498 31.33-112.84 0-53.83-15.665-98.167-47.17-133.17-31.496-34.991-78.5-56.994-141.16-66.165 31.165-18.167 56.828-38.165 76.992-59.993 20.338-21.837 47.667-60.674 82.005-116.33l87.331-139.67h-172.83l-103.67 156.33c-37.162 55.504-62.67 90.504-76.495 105-13.669 14.34-28.175 24.339-43.5 29.665-15.509 5.3352-39.839 8.0027-73.174 8.0027h-29.334v-299h-145zm145 413h107.01c69.329 0 112.5 3.0079 129.83 8.8398 17.174 5.8319 30.834 15.996 40.501 30.328 9.8332 14.34 14.672 32.333 14.672 53.839 0 24.164-6.5034 43.5-19.335 58.494-12.832 14.837-30.999 24.174-54.336 28-11.829 1.6741-46.995 2.502-105.5 2.502h-112.84v-182z"/></glyph><glyph horiz-adv-x="722" unicode="A"><path d="m718 0h-156.16l-61.842 163h-287.16l-59.505-163h-153.33l278 716h153.16l286.84-716zm-265 284-99.5 265-96.667-265h196.17z"/></glyph><glyph horiz-adv-x="556" unicode="0"><path d="m274.5 720c69.329 0 123.5-24.827 162.67-74.499 46.499-58.668 69.826-156.16 69.826-292.16 0-135.84-23.493-233.5-70.332-292.84-38.827-49.001-92.832-73.496-162.16-73.496-69.67 0-125.84 26.832-168.5 80.496-42.672 53.664-64.003 149.5-64.003 287.17 0 135.16 23.502 232.5 70.332 291.83 38.836 49.001 92.832 73.496 162.17 73.496zm0-114c-16.337 0-30.999-5.3352-43.665-15.996-12.841-10.505-22.84-29.5-29.84-57.003-9.3273-35.497-14-95.499-14-179.67 0-84.332 4.1669-142.16 12.501-173.67 8.3339-31.496 18.839-52.496 31.505-63.001 12.666-10.496 27.163-15.665 43.5-15.665 16.327 0 30.999 5.3352 43.831 15.996 12.666 10.505 22.665 29.5 29.665 57.003 9.3365 35.166 14 95.002 14 179.34 0 84.167-4.1669 142-12.501 173.5-8.3339 31.496-18.829 52.662-31.496 63.166-12.666 10.661-27.172 15.996-43.5 15.996z"/></glyph><glyph horiz-adv-x="548" unicode="≠"><path d="m205.67 308 33.326 89.998h-215v127h262.17l71.997 194.01h102l-72.162-194.01h136v-127h-183.34l-33.501-89.998h216.84v-127h-264.17l-71.831-193h-101l71.5 193h-134.5v127h181.67z"/></glyph><glyph horiz-adv-x="722" unicode="₦"><path d="m701 163h-58.999v-163h-144.66l-101 163h-188.34v-163h-134v163h-58.006v126h58.006v129h-58.006v126h58.006v172h139.33l106-172h188.66v172h134v-172h58.999v-126h-58.999v-129h58.999v-126zm-193 126v129h-111l79.668-129h31.33zm-189.83 0-79.834 129h-30.337v-129h110.17z"/></glyph><glyph horiz-adv-x="499" unicode="„"><path d="m292 137h137v-98.507c0-39.664-3.5046-70.829-10.505-93.66-7.0001-22.665-19.998-43.334-38.827-61.667-19.004-18.333-43.003-32.839-71.84-43.169l-26.832 57.003c27.338 9.1617 46.839 21.828 58.668 37.999 12.004 16.327 18.002 37.999 18.333 64.997h-66v137zm-230 0h137v-98.507c0-39.664-3.3299-70.829-10.164-93.66-6.8345-22.665-19.841-43.334-38.836-61.667-19.004-18.333-43.169-32.839-72.337-43.169l-26.666 57.003c27.504 9.1617 47.004 21.828 58.668 37.999 11.498 16.327 17.67 37.999 18.333 64.997h-66v137z"/></glyph><glyph horiz-adv-x="0" unicode="‍"><path d="m16.999-134h-35v675.84l-63.498-64.831-24.505 24.505 81.002 80.993-81.996 82.005 24.496 24.496 82.005-81.996 81.996 81.996 24.505-24.496-82.005-82.005 81.002-80.993-24.505-24.505-63.498 64.831v-675.84z"/></glyph><glyph horiz-adv-x="580" unicode="ӵ"><path d="m56.001 519h139v-124.16c0-28.341 2.502-49.341 7.4968-63.341 5.1696-13.835 15.84-25.664 32.333-35.663 16.337-9.8332 37.171-14.837 62.173-14.837 24.33 0 51.668 5.5007 81.996 16.668v221.34h137v-519h-137v207.5c-53.499-14.331-94.165-21.497-122.17-21.497-42 0-79.834 8.9962-113.34 27.163-33.501 18.002-56.497 41.163-68.998 69.329-12.335 28.175-18.498 65.668-18.498 112.51v124zm72.503 67.002v118h118v-118h-118zm210.5 0v118h118v-118h-118z"/></glyph><glyph horiz-adv-x="718" unicode="Ӥ"><path d="m74.996 716h135.01v-476.67l289.99 476.67h144v-716h-135v469l-290-469h-144v716zm120.5 64.997v118h118.01v-118h-118.01zm210.5 0v118h118.01v-118h-118.01z"/></glyph><glyph horiz-adv-x="556" unicode="ӓ"><path d="m174 359-124 22.003c14 50.666 38.165 88.168 72.328 112.5 34.172 24.33 85.004 36.5 152.34 36.5 61.161 0 106.83-7.1657 136.83-21.672 29.84-14.497 51.006-32.83 63.166-55.164 12.17-22.334 18.342-63.166 18.342-122.83l-2.0053-160.01c0-45.496 2.1708-79.163 6.5034-100.82 4.3325-21.672 12.501-44.834 24.496-69.504h-136c-3.4954 8.9962-7.9935 22.334-13.163 40.004-2.1708 8.1591-3.8358 13.494-4.8384 15.996-23.328-22.996-48.329-40.17-74.996-51.668s-54.998-17.33-85.169-17.33c-53.168 0-95.168 14.497-125.84 43.5-30.659 28.828-45.993 65.494-45.993 109.83 0 29.168 7.0001 55.338 21 78.335 14 22.831 33.501 40.501 58.834 52.662 25.167 12.17 61.492 22.84 108.99 32.002 64.003 12.004 108.51 23.337 133.17 33.667v13.835c0 26.666-6.4942 45.671-19.501 57.169-13.163 11.333-37.834 16.999-73.993 16.999-24.505 0-43.5-4.8292-57.169-14.662-13.835-9.6677-24.836-26.841-33.336-51.337zm184-111c-17.496-5.8319-45.33-12.832-83.495-21-37.999-8.1683-63.001-16.171-74.674-23.833-17.827-12.832-26.832-28.837-26.832-48.338 0-19.326 7.1657-35.828 21.506-49.828 14.331-14 32.498-21 54.667-21 24.661 0 48.329 8.1683 70.829 24.33 16.502 12.501 27.504 27.504 32.664 45.505 3.5046 11.664 5.3352 33.998 5.3352 66.827v27.338zm-239.5 338v118h118.01v-118h-118.01zm210.51 0v118h118v-118h-118z"/></glyph><glyph horiz-adv-x="709" unicode="ӂ"><path d="m287 0v221c-17.836-1.3338-30.337-5.3352-37.337-12.004-7.0001-6.6689-19.335-26.335-36.831-59.165l-65.337-149.84h-147.5l73.165 143c37.171 71.335 75.667 112.33 115.67 122.66-29.84 11.507-52.671 41.007-68.502 88.839-12.17 35.663-23.006 56.994-33.004 63.994-9.8332 7.0001-32.995 10.505-69.329 10.505v90.495c26.998 1.6741 45.836 2.502 56.497 2.502 30.171 0 56.001-6.6689 77.498-19.998 21.506-13.503 41.669-46.83 60.508-99.997 14.497-41.504 26.326-67.674 34.991-78.666 8.8398-10.836 22.003-16.668 39.508-17.339v213h136.99v-213c17.505 0 30.834 5.6663 39.673 17.164 8.9962 11.333 20.66 37.668 34.826 78.841 18.673 52.496 38.34 85.666 59.34 99.5 20.835 13.66 47.832 20.494 80.662 20.494 9.3365 0 27.504-0.82787 54.501-2.502v-90.495c-36.003 0-58.999-3.5046-69.164-10.505-9.9988-7.0001-21-28.332-33.004-63.994-15.996-47.832-38.827-77.332-68.667-88.839 40.004-10.33 78.5-51.328 115.67-122.66l73.165-143h-147.5l-64.831 149.84c-11.673 26.666-22.5 44.834-32.508 54.501-9.8332 9.8332-23.999 15.334-42.166 16.668v-221h-136.99zm153.99 728h67.002c-3.8358-44.162-19.501-78.997-46.664-104.16-27.163-25.167-62.338-37.834-105.5-37.834-43.334 0-78.5 12.666-105.67 37.834-27.163 25.167-42.828 60.002-46.664 104.16h67.002c2.3364-22.996 10.33-40.501 24.33-52.33 14-11.838 34.338-17.67 61.005-17.67 26.501 0 46.83 5.8319 60.83 17.67 14 11.829 22.003 29.334 24.33 52.33z"/></glyph><glyph horiz-adv-x="556" unicode="ұ"><path d="m547 519-198-519h153v-91.001h-153v-106h-137v106h-153v91.001h153l-203 519h144l125.5-367.5 127.49 367.5h141z"/></glyph><glyph horiz-adv-x="761" unicode="Ҡ"><path d="m752 0h-169.83l-86.163 184.84c-1.1682 2.502-4.0014 7.4968-8.3339 14.994-2.1708 4.0014-8.1683 15.168-17.836 33.667-15.996 30.668-28.332 50.169-36.665 58.503-14.166 13.669-34.835 20.669-62.164 21v-313h-145.01v595h-213v121.01h358.01v-305c36.159 3.6702 62.66 18.498 80 44.502 4.1669 7.1657 16.833 37.834 37.999 91.994 27.329 70.672 54.667 116.67 81.996 137.84 30.171 23.493 81.168 35.166 153 35.166 3.3391 0 10.339 0.16557 21 0.49672v-107l-20.494 0.49672c-48.173 1.3338-80.837-13.494-98.001-44.502-8.4994-14.994-21-45.827-37.668-92.5-10.339-29.325-20.338-50.5-29.665-63.663-11.673-16.833-29.5-32.002-53.168-45.496 33.998-9.6677 64.5-32.839 91.001-69.338 13.66-18.829 32.83-53.168 57.5-103l97.495-196z"/></glyph><glyph horiz-adv-x="610" unicode="ҏ"><path d="m593.5 7.1657-63.994-64.003-71.335 71.335c-30.171-18.333-64.169-27.494-101.67-27.494-53.995 0-104.5 25.333-151.5 75.833v-259.83h-137v716h128.01v-76.495c37.493 58.328 91.332 87.496 161.66 87.496 70.001 0 124.67-28.166 164.17-84.663 34.835-49.506 52.165-110.84 52.165-183.84 0-76.661-16.668-138.33-49.828-184.99l69.329-69.338zm-160.5 253.67c0 43.5-8.0027 79.337-23.833 107.83-19.666 35.497-49.506 53.333-89.171 53.333-39.83 0-69.835-16.337-90.33-49.001-17.164-27.504-25.673-62.67-25.673-105.5 0-45.671 8.3339-83.67 24.836-114.17 20.669-38.165 51.999-57.334 93.669-57.334 16.337 0 30.999 3.3391 44.337 10.008l-60.002 60.158 63.498 64.169 52.671-52.662c6.6597 22.831 9.9988 50.5 9.9988 83.164z"/></glyph><glyph horiz-adv-x="1279" unicode="Ѿ"><path d="m1237 360.5c0-68.833-13.338-131.16-40.004-187-29.325-61.005-71.997-107.34-127.83-139-56.001-31.67-121.16-47.501-195.83-47.501-58.337 0-116.5 11.167-174.5 33.667-21.497 8.4994-40.998 17.33-58.494 26.335-17.67-9.0054-37.171-17.836-58.668-26.335-58.006-22.5-116.33-33.667-175-33.667-71.335 0-134.5 14.497-189.17 43.5-58.999 31.661-103.16 77.994-132.5 139-28 58.834-42 122.5-42 191 0 73 14.662 137.83 43.997 194.34 32.002 60.333 78.666 106.5 140.33 138.49 46.167 23.833 103.34 35.672 171.5 35.672 57.666 0 113.84-14.166 168.17-42.506l-68.327-108.5c-31.008 18.002-64.169 26.998-99.841 26.998-69.329 0-122-22.996-157.99-68.998-32.498-41.329-48.835-98.001-48.835-169.67 0-73.662 15.5-132.84 46.499-177.5 35.497-51.834 88.499-77.838 158.83-77.838 60.674 0 117.17 20.338 169.67 61.005v174h146v-174c52.505-40.667 109-61.005 169.67-61.005 70.332 0 123.33 26.004 158.84 77.838 30.999 44.659 46.499 103.83 46.499 177.5 0 72.006-16.171 128.84-48.504 170.17-35.828 45.662-88.665 68.492-158.33 68.492-35.497 0-68.833-8.9962-99.832-26.998l-68.336 108.5c54.501 28.341 110.5 42.506 168.17 42.506 68.17 0 125.34-11.838 171.51-35.672 61.667-31.992 108.33-78.16 140.33-138.49 29.334-56.507 43.997-121.34 43.997-194.34zm-369 515.5-44.171-95.002h-16.658l-23.171 49.001h-108l-23.171-49.001h-16.658l-23.171 49.001h-108l-23.162-49.001h-16.668l-44.171 95.002h447z"/></glyph><glyph horiz-adv-x="980" unicode="ѭ"><path d="m922 0h-136.99v21c0 35.166-1.8397 60.996-5.3352 77.663-6.5034 28.166-19.832 49.506-39.664 63.838-17.339 12.335-40.004 19.832-68.005 22.5v-185h-137v185c-55.826-4.4981-90.33-28.497-103.33-71.666-6.5034-21.506-9.6677-52.34-9.6677-92.335v-21h-137v21c0 63.166 7.0001 112 21 146.5 5.5007 13.338 12.998 26.17 22.5 38.505h-119.5v-206h-137v519h137v-229h268.5l-142.16 229h534.5l-141.67-229c40.336-7.8372 73.331-20.172 98.673-37.171 39.664-26.666 66.331-60.333 80-100.67 10.164-29.665 15.159-73.496 15.159-131.16v-21zm-257.66 405h-121.01l58.006-115 63.001 115z"/></glyph><glyph horiz-adv-x="500" unicode="ќ"><path d="m66 519h137v-212c22.831 2.6676 39.002 9.6677 48.495 21 9.3365 11.333 20.835 36.169 34.172 74.499 17.661 51.162 36.831 83.67 57.831 98.001 20.835 14.331 48.164 21.497 82.161 21.497 10.505 0 28.506-0.82787 54.336-2.502l0.50592-90.495c-36.334 0-59.505-3.3391-69.504-10.164-10.164-7.1657-21.166-28.506-32.83-64.003-16.005-47.667-39.167-77.166-69.173-88.168 43.334-11.995 80-49.828 110-113.34 1.4994-3.3299 3.3299-6.6597 5.3352-10.33l76.661-143h-147.5l-68.336 150.5c-14 30.337-26.161 49.838-36.5 58.503-10.164 8.665-25.498 12.998-45.662 12.998v-222h-137v519zm124 67.002 68.005 146h153l-135-146h-86.006z"/></glyph><glyph horiz-adv-x="854" unicode="ы"><path d="m73 519h137v-216h138c54.17 0 95.499-3.8358 124-11.498 28.497-7.6716 52.662-24.339 72.328-50.003 19.832-25.664 29.665-56.001 29.665-90.661 0-50.169-17.33-87.837-51.834-113-34.494-25.167-86.328-37.834-155.33-37.834h-293.84v519zm137-431h128c33.17 0 57.5 5.1604 72.503 15.5 14.994 10.33 22.5 27.163 22.5 50.5 0 24.836-9.6677 42-29.168 51.162-19.501 9.1709-54.336 13.835-104.67 13.835h-89.161v-131zm442 431h137v-519h-137v519z"/></glyph><glyph horiz-adv-x="500" unicode="к"><path d="m66 519h137v-212c22.831 2.6676 39.002 9.6677 48.495 21 9.3365 11.333 20.835 36.169 34.172 74.499 17.661 51.162 36.831 83.67 57.831 98.001 20.835 14.331 48.164 21.497 82.161 21.497 10.505 0 28.506-0.82787 54.336-2.502l0.50592-90.495c-36.334 0-59.505-3.3391-69.504-10.164-10.164-7.1657-21.166-28.506-32.83-64.003-16.005-47.667-39.167-77.166-69.173-88.168 43.334-11.995 80-49.828 110-113.34 1.4994-3.3299 3.3299-6.6597 5.3352-10.33l76.661-143h-147.5l-68.336 150.5c-14 30.337-26.161 49.838-36.5 58.503-10.164 8.665-25.498 12.998-45.662 12.998v-222h-137v519z"/></glyph><glyph horiz-adv-x="1019" unicode="Щ"><path d="m74.996 716h145.01v-595.01h206v595.01h145v-595.01h212v595.01h145.01v-595.01h63.994v-277h-121v156h-796v716z"/></glyph><glyph horiz-adv-x="718" unicode="И"><path d="m74.996 716h135.01v-476.67l289.99 476.67h144v-716h-135v469l-290-469h-144v716z"/></glyph><glyph horiz-adv-x="275" unicode="Ї"><path d="m67.996 0v716h145.01v-716h-145.01zm-93.494 781v118h118v-118h-118zm210.5 0v118h118v-118h-118z"/></glyph><glyph horiz-adv-x="610" unicode="ù"><path d="m415 0v77.663c-19.004-27.66-43.831-49.663-74.664-66.165-30.834-16.327-63.332-24.496-97.504-24.496-35 0-66.331 7.6624-94 22.996-27.835 15.334-47.832 37.006-60.168 64.666-12.501 27.835-18.664 66.165-18.664 115.17v329.17h137v-239c0-73.174 2.4928-117.83 7.6624-134.34 5.004-16.502 14.166-29.665 27.669-39.167 13.329-9.6677 30.328-14.497 50.997-14.497 23.502 0 44.502 6.4942 63.166 19.326 18.664 12.841 31.339 28.837 38.165 48.007 6.8345 19.16 10.339 65.834 10.339 140.33v219.33h136.99v-519h-127zm-21 586h-85.997l-135.01 146h153l68.005-146z"/></glyph><glyph horiz-adv-x="556" unicode="è"><path d="m372 164 137-22.996c-17.505-50.169-45.33-88.334-83.164-114.67-37.999-26.17-85.5-39.333-142.34-39.333-90.164 0-157 29.5-200.17 88.499-34.163 47.336-51.328 107-51.328 179.17 0 85.997 22.5 153.5 67.333 202.16 44.834 48.835 101.66 73.165 170.33 73.165 77.001 0 137.84-25.498 182.5-76.504 44.502-50.997 65.834-129.17 63.838-234.5h-343c1.0026-40.667 12.004-72.328 33.17-95.002 21-22.665 47.336-33.998 78.666-33.998 21.497 0 39.498 5.8319 54.005 17.505 14.662 11.664 25.664 30.493 33.161 56.497zm8.0027 139c-1.0026 39.83-11.167 70.166-30.668 90.836-19.501 20.835-43.169 31.165-71.169 31.165-29.831 0-54.501-11.001-73.993-32.83-19.501-21.837-29.003-51.668-28.672-89.171h204.5zm-19.004 283h-85.997l-135 146h153l67.996-146z"/></glyph><glyph horiz-adv-x="583" unicode="×"><path d="m54.501 205 147.83 148.17-149.33 149.33 91.498 90.67 148.67-148.83 149.34 149.67 87.496-89.502-148.34-148.67 149.84-149.84-91.001-91.001-149.67 149.67-148.33-148.67-88.002 88.996z"/></glyph><glyph horiz-adv-x="1000" unicode="Æ"><path d="m-42 0 334 716h646v-121.01h-353v-159h326v-121h-326v-194.01h367v-121h-512l0.33115 169h-248.17l-74.333-169h-159.83zm286.84 294h195.66l0.49672 314h-55.992l-140.17-314z"/></glyph><glyph horiz-adv-x="576" unicode="µ"><path d="m54.005 519h136.99v-235.17c0-67.83 6.8345-114 20.504-138.33 17.164-31.67 42.497-47.501 76.329-47.501 18.167 0 35.332 5.8319 51.503 17.661 16.162 11.673 28.166 28 36.003 48.835 7.828 20.835 11.664 60.168 11.664 117.83v236.67h139v-519h-129v62.329c-9.6677-18.167-18.829-31.992-27.669-40.998-8.665-9.1617-20.329-17.164-35.166-23.999-14.662-6.8345-28.166-10.33-40.326-10.33-23.006 0-43.334 6.3286-61.17 19.16-12.501 9.3365-26.501 28.166-41.669 56.166v-261.33h-136.99v718z"/></glyph><glyph horiz-adv-x="556" unicode="¤"><path d="m85.997 460-63.994 63.001 80.993 88.002 66-67.002c17.339 9.5021 34.835 16.502 52.671 21.166 17.836 4.4981 35.838 6.8345 54.17 6.8345 18.498 0 36.831-2.3364 54.832-6.8345 17.827-4.6637 35.332-11.664 52.33-21.166l66 66 81.002-82.998-64.003-65.006c9.0054-16.658 15.84-33.832 20.338-51.493 4.4981-17.836 6.6689-36.169 6.6689-55.007 0-18.498-2.1708-36.665-6.6689-54.492-4.4981-17.67-11.333-35-20.338-51.999l65.006-65.006-81.002-84.001-67.002 67.002c-16.337-9.1617-33.336-16.162-50.997-20.835-17.836-4.8292-36.334-7.1657-55.504-7.1657-18.167 0-36.169 2.3364-53.664 6.8345-17.67 4.4981-34.835 11.167-51.834 20.163l-63.001-63.994-84.001 81.996 64.003 65.006c-9.1709 16.999-16.171 34.329-20.835 52.165-4.8384 17.827-7.1657 35.994-7.1657 54.501 0 18.664 2.1616 36.665 6.4942 54.161 4.3417 17.505 10.836 34.172 19.501 50.169zm92.004-104.5c0-27.329 9.6677-50.5 29.003-69.66 19.326-19.17 42.497-28.837 69.495-28.837 27.338 0 50.5 9.6677 69.67 28.837 19.16 19.16 28.828 42.332 28.828 69.66 0 27.338-9.6677 50.5-28.828 69.67-19.17 19.17-42.332 28.837-69.67 28.837-27.329 0-50.5-9.6677-69.67-28.837-19.16-19.17-28.828-42.332-28.828-69.67z"/></glyph><glyph horiz-adv-x="610" unicode="q"><path d="m411-197v259.16c-18.002-22.996-40.336-41.329-67.002-54.832-26.832-13.494-55.66-20.329-86.669-20.329-58.999 0-107.66 22.168-145.83 66.496-44.999 51.834-67.499 122.17-67.499 210.83 0 83.504 21.166 148.67 63.341 195.51 42.332 46.83 94.828 70.166 157.5 70.166 34.669 0 64.5-7.1657 89.833-21.672 25.333-14.331 47.832-36.325 67.333-66v76.67h126v-716h-137zm4.0014 461.83c0 53.333-10.836 93.163-32.333 119.17-21.672 25.995-48.669 39.002-81.168 39.002-33.17 0-60.83-13.338-83.164-39.839-22.168-26.501-33.336-68.502-33.336-126.17 0-57.169 10.67-98.498 32.167-124 21.497-25.333 47.998-37.999 79.503-37.999 31.496 0 58.999 14.166 82.833 42.663 23.659 28.497 35.497 71.004 35.497 127.17z"/></glyph><glyph horiz-adv-x="332" unicode="`"><path d="m242 582h-86.006l-135 146h153l68.005-146z"/></glyph><glyph horiz-adv-x="777" unicode="O"><path d="m43.003 353.66c0 73 11.001 134.34 32.83 184 16.171 36.5 38.505 69.338 66.671 98.332 28.166 29.003 58.999 50.5 92.5 64.675 44.659 18.829 96.162 28.332 154.5 28.332 105.66 0 190-32.839 253.49-98.332 63.341-65.668 95.002-156.84 95.002-273.67 0-115.84-31.496-206.51-94.331-271.84-62.835-65.503-147-98.167-252.17-98.167-106.5 0-191.33 32.498-254.16 97.661-62.835 65.006-94.331 154.67-94.331 269zm149 4.8384c0-81.168 18.829-142.67 56.332-184.67 37.502-41.835 85.169-62.835 142.84-62.835 57.831 0 105.17 20.835 142.33 62.338 37.006 41.66 55.504 104 55.504 187.16 0 82.17-18.002 143.5-54.17 183.83-35.994 40.501-83.826 60.664-143.66 60.664-59.671 0-107.83-20.494-144.33-61.327-36.5-41.007-54.832-102.67-54.832-185.17z"/></glyph><glyph horiz-adv-x="583" unicode="&gt;"><path d="m46.002 81.002v138l342.5 135.17-342.5 133.83v137l491-212.67v-117.34l-491-214z"/></glyph><glyph horiz-adv-x="332" unicode="-"><path d="m56.001 191v137h270v-137h-270z"/></glyph><glyph horiz-adv-x="277" unicode="∙"><path d="m71.004 280v136.99h136.99v-136.99h-136.99z"/></glyph><glyph horiz-adv-x="834" unicode="⅞"><path d="m220.5-26.004h-77.498l423.17 751h77.498l-423.17-751zm-197.5 666v78.004h289v-60.664c-41.66-34.669-75.658-80.165-102.16-136.51-26.501-56.497-39.839-108-39.839-154.66v-11.167h-89.998c1.0026 55.67 12.666 107.17 35 154.33 22.334 47.336 44.999 84.672 68.17 112.17l15.665 18.498h-175.84zm556.83-462c-32.498 15.831-48.826 40.501-48.826 74.002 0 26.998 11.664 49.828 34.826 68.667 23.171 18.829 56.341 28.332 99.5 28.332 40.667 0 73.174-9.0054 97.339-26.998 24.164-18.002 36.334-41.835 36.334-71.5 0-29.5-15.84-53.673-47.336-72.503 40.17-19.004 60.333-48.504 60.333-88.83 0-33.501-13.163-61.17-39.498-82.667-26.335-21.672-61.17-32.508-104.34-32.508-41.826 0-76.826 10.174-104.99 30.502-28.175 20.338-42.175 48.338-42.175 84.167 0 38.34 19.666 68.17 58.834 89.336zm39.167 68.336c0-24.174 15.168-36.334 45.505-36.334 30.999 0 46.499 11.995 46.499 35.828 0 24.174-15.334 36.169-46.002 36.169s-46.002-11.829-46.002-35.663zm-7.0001-151.68c0-16.493 5.1696-29.5 15.674-38.827 10.496-9.1709 23.659-13.835 39.664-13.835 15.168 0 27.835 4.3325 37.668 13.163 9.9988 8.8398 14.994 21.166 14.994 37.171 0 33.161-17.992 49.663-54.161 49.663-17.67 0-30.999-4.8292-40.17-14.331-9.1617-9.6677-13.669-20.669-13.669-33.004z"/></glyph><glyph horiz-adv-x="667" unicode="₴"><path d="m650 211h-451v-3.4954-0.83707-0.99344c0-32.508 15.996-57.666 47.832-75.17 26.004-14.331 56.838-21.497 92.5-21.497 85.169 0 158.33 19.666 219.33 58.999l72.337-121c-36.169-20.504-71.335-34.835-105.5-43.003-46.499-11.333-108.17-16.999-185-16.999-80.34 0-145.83 15.665-196.66 46.83-59.836 37.171-89.833 92.335-89.833 165.5v3.8358 7.828h-39.002v106h73.165c31.33 42.332 97.164 77.001 197.67 104h-270.83v106h456.5c0.33115 2.3272 0.50592 5.9974 0.50592 10.827 0 25.673-14.837 44.834-44.502 57.334-21.837 9.1709-47.501 13.835-77.166 13.835-68.502 0-132-16.668-190.34-49.994l-81.002 99.5c79.834 46.995 169.67 70.498 269.67 70.498 72.328 0 131.66-14.331 178.33-42.838 55.329-33.998 82.998-84.001 82.998-149.84v-0.49672-1.4994-1.4994-5.8319h39.995v-106h-82.998c-23.328-24.33-58.494-45.662-105.17-63.994-10.827-4.1669-52.496-17.505-125.33-40.004h313.5v-106z"/></glyph><glyph horiz-adv-x="556" unicode="₣"><path d="m74.002 88.002h-74.002v110h74.002v518.01h432v-121.01h-288.01v-170h241v-121h-241v-106h123v-110h-123v-88.002h-143.99v88.002z"/></glyph><glyph horiz-adv-x="0" unicode="‬"><path d="m114 480h-96.998v-614h-35v614h-96.998v209h229v-209z"/></glyph><glyph horiz-adv-x="277" unicode="‛"><path d="m210 716v-137h-66c1.3338-53.664 26.998-88.002 77.001-103l-26.841-56.994c-31.165 11.333-56.332 26.832-75.327 46.499-19.17 19.666-31.67 40.998-37.337 64.003-5.6663 22.831-8.4994 52.165-8.4994 87.993v98.507h137z"/></glyph><glyph horiz-adv-x="621" unicode="Ӳ"><path d="m-0.49672 716h162.83l166.67-370.67 142.66 370.67h150.84l-242.17-544.17c-26.335-59.009-53.168-103.84-80.496-134.68-27.338-30.824-62.504-46.158-105.84-46.158-42.663 0-75.998 2.8332-99.997 8.3339v107.66c20.504-1.3338 39.002-1.9961 55.504-1.9961 33.326 0 57.325 6.163 71.831 18.333 14.331 12.335 28.332 38.836 41.495 79.337l-263.33 513.33zm165.5 64.997 67.996 146h144l-126-146h-85.997zm184 0 67.996 146h140l-120-146h-88.002z"/></glyph><glyph horiz-adv-x="526" unicode="ӡ"><path d="m505 46.002c0-77.498-21-139-62.835-184.67-43.831-47.501-105.66-71.335-185.5-71.335-131.5 0-211.34 62.67-239.67 188l135 23.006c12.335-66 45.174-99.004 98.507-99.004 75.667 0 113.5 50.003 113.5 150.17 0 37.502-10.505 67.499-31.67 90.339-23.502 24.992-56.838 37.493-99.997 37.493h-48.338v81.002l143 147c-25.664-2.0053-46.664-2.9987-62.835-2.9987h-202.16v114h428v-97.33l-152.33-160.67c41.66-6.163 77.166-23.337 106.34-51.337 40.667-38.661 60.996-93.328 60.996-163.66z"/></glyph><glyph horiz-adv-x="722" unicode="Ӑ"><path d="m718 0h-156.16l-61.842 163h-287.16l-59.505-163h-153.33l278 716h153.16l286.84-716zm-265 284-99.5 265-96.667-265h196.17zm58.999 639c-3.8358-43.831-19.335-78.5-46.167-104-26.832-25.333-62.329-37.999-106.34-37.999-43.665 0-78.997 12.832-106 38.33-27.172 25.498-42.672 60.002-46.499 103.67h66.993c4.5073-46.664 33.004-70.001 85.5-70.001 52.505 0 81.002 23.337 85.5 70.001h67.002z"/></glyph><glyph horiz-adv-x="678" unicode="ҿ"><path d="m638 220h-343c1.0026-36.831 10.505-66.836 28.672-89.833 20.163-26.17 47.832-39.167 83.164-39.167 43.831 0 72.834 24.661 87.165 74.002l137-23.006c-31.165-88.996-92.169-139.33-183-150.99v-123h-90.992v124c-49.341 7.506-91.838 27.172-127.5 58.999-49.001 43.665-73.506 100.01-73.506 169-42.497 0-76.835 7.828-103 23.502-32.002 19.16-47.998 48.66-47.998 88.334 0 28.994 4.9948 62.329 15.159 100.16l85.169-18.498c-6.163-29.003-9.3365-48.338-9.3365-58.172 0-21.166 5.3352-35.497 16.171-42.994 8.3339-5.5007 23.162-8.3339 44.834-8.3339 7.4968 66.827 31.496 120.83 72.162 161.66 42.506 42.838 96.833 64.334 162.67 64.334 164.17 0 246.17-103.34 246.17-310zm-136 84.001c-1.0026 34.329-9.5021 62.329-25.333 84.001-17.836 24.661-43.334 36.996-76.504 36.996-32.83 0-58.494-12.335-77.332-36.996-17.33-22.334-25.664-50.334-25.333-84.001h204.5z"/></glyph><glyph horiz-adv-x="556" unicode="Ү"><path d="m551 716-208-416v-300h-137v300l-206 416h150.5l98.001-207.34c12.666-26.666 21.506-49.506 26.335-68.667 6.5034 22.996 15.334 45.827 26.335 68.667l99.5 207.34h150.33z"/></glyph><glyph horiz-adv-x="500" unicode="ҝ"><path d="m501 0h-147.33l-68.667 149.67c-3.661 8.1683-7.3312 15.5-11.001 21.994v-105.66h-36.996v149.16c-8.9962 3.8358-20.338 5.8411-33.998 5.8411v-221h-137v519h137v-213c13.66 1.6649 25.002 5.004 33.998 9.8332v146.16h36.996v-89.998c4.0014 9.5021 7.6716 19.666 11.333 30.337 15.003 43.169 30.834 72.834 47.501 89.161 21 20.669 51.834 31.008 92.666 31.008 10.505 0 28.672-0.83707 54.501-2.502v-91.001c-35.828 0-58.999-3.8358-69.329-11.333-10.164-7.506-21.166-28.506-32.839-63.001-16.162-47.998-39.167-77.663-69.164-89.005 26.998-7.4968 50.666-23.659 71.004-48.826 10.827-13.669 25.83-38.34 44.999-74.002l76.329-142.84z"/></glyph><glyph horiz-adv-x="718" unicode="Ҍ"><path d="m673 212.5c0-42-10.339-80.506-31.165-115.67-22.5-37.502-52.671-63.663-90.339-78.335-32.333-12.335-78.169-18.498-137.66-18.498h-337.83v523h-67.002v91.001h67.002v102h145.01v-102h68.998v-91.001h-68.998v-92.997h193.16c75.998 0 136.67-16.833 181.84-50.334 51.337-38.174 77.001-93.834 77.001-167.16zm-149 1.9961c0 39.167-17.339 65.834-52.174 80.496-22.831 9.3365-57.5 14-104 14h-146.83v-188h140.5c37.999 0 63.498 1.0026 76.164 2.8332 28.332 5.004 50.169 16.005 65.834 33.501 13.669 15.168 20.504 34.172 20.504 57.169z"/></glyph><glyph horiz-adv-x="637" unicode="ѻ"><path d="m621 260c0-65.659-19.998-122.99-59.836-171.66-39.995-48.835-91.994-78.169-156.16-88.334-17.836-34.669-46.839-51.999-86.669-51.999-39.002 0-67.499 17.33-85.335 51.999-64.169 10.164-116.33 39.83-156.33 89.336-39.839 48.329-59.671 105.66-59.671 171.66 0 65.668 19.998 123 59.836 171.66 39.995 48.835 91.994 78.335 156.16 88.334 17.836 34.669 46.333 52.008 85.335 52.008 39.83 0 68.833-17.339 86.669-52.008 64.169-9.9988 116.17-39.664 156.16-88.499 39.839-49.001 59.836-106.5 59.836-172.5zm-141 0c0 36.003-9.5021 68.005-28.332 95.84-17.836 25.664-39.995 43.16-66.662 52.165-18.507-17.33-40.842-26.004-66.671-26.004-25.002 0-46.83 8.6742-65.337 26.004-26.666-9.0054-48.66-26.335-66.165-51.668-19.16-27.504-28.828-59.33-28.828-95.334s9.6677-67.996 28.828-95.83c17.505-25.673 39.498-43.003 66.165-52.165 18.507 17.33 40.336 25.995 65.337 25.995 25.83 0 48.164-8.665 66.671-25.995 26.666 9.1617 48.826 26.326 66.662 51.659 18.829 27.504 28.332 59.34 28.332 95.334z"/></glyph><glyph horiz-adv-x="809" unicode="Ѫ"><path d="m768 0h-145.01v89.502c0 108.17-19.666 174.16-58.834 198-20.494 12.335-49.497 18.829-87.165 19.501v-307h-145v307c-62.504-0.67149-104.17-22.665-125-66-14-29.003-21-79.503-21-151.5v-89.502h-145.01v113.34c0 66.662 6.1722 118.84 18.673 156.33 17.661 51.668 49.994 91.507 96.998 119.17 27.329 16.337 62.495 27.669 105.33 34.172l-192.67 293h671.34l-193.34-293c45.165-6.8345 81.499-19.004 109.33-36.674 45.505-28.497 76.504-68.327 93.172-119.5 12.16-36.665 18.167-87.993 18.167-153.66v-113.17zm-261.84 595h-197.83l99.832-171.99 98.001 171.99z"/></glyph><glyph horiz-adv-x="968" unicode="љ"><path d="m569 303h137.33c53.995 0 95.499-3.8358 124.49-11.664 29.003-7.8372 53.168-24.67 72.337-50.334 19.17-25.664 28.837-55.835 28.837-90.164 0-50.169-17.174-87.837-51.503-113-34.504-25.167-86.006-37.834-154.66-37.834h-293.84v406h-184v-229.16c0-72.503-12.832-121.5-38.671-147.17-25.664-25.83-58.494-38.661-98.664-38.661-18.498 0-51.503 2.9987-98.664 8.8306v107c30.162-2.502 50.5-3.8358 60.996-3.8358 14.497 0 24.164 4.5073 29.003 13.669 4.6637 9.1709 7.0001 25.839 7.0001 49.838v352.5h460v-216zm0-215h127.67c39.995 0 65.834 6.4942 77.166 19.335 11.498 12.998 17.164 28.332 17.164 46.158 0 18.839-7.3312 34.338-21.837 46.839-14.497 12.501-51.328 18.664-110.66 18.664h-89.502v-131z"/></glyph><glyph horiz-adv-x="833" unicode="ш"><path d="m67.996 519h126v-408h160v408h126v-408h160v408h126v-519h-698v519z"/></glyph><glyph horiz-adv-x="496" unicode="з"><path d="m211 212v89.005c23.833 0 41.173 1.4994 52.008 4.6637 10.661 3.1643 20.826 10.67 30.493 22.665 9.6677 12.004 14.506 25.664 14.506 41.163 0 16.337-6.0066 31.67-17.836 45.505-11.838 14-29.665 21-53.333 21-18.167 0-34.504-3.8358-48.835-11.664-14.331-7.6716-27.329-26.17-39.002-55.338l-115.99 25.002c11.664 45.33 36.831 79.328 75.161 102 38.33 22.665 82.17 33.998 131.17 33.998 62.495 0 110.83-14.331 145.16-43.169 34.338-28.663 51.503-64.666 51.503-108.17 0-27.163-7.3312-49.497-22.168-67.333-14.837-17.836-38.165-34.329-70.166-49.663 38.33-10.505 67.002-26.335 85.832-47.501 19.004-21.166 28.506-47.501 28.506-79.172 0-40.336-18.839-75.161-56.507-104.33-37.668-29.168-91.994-43.665-162.83-43.665-123.5 0-199 48.329-226.66 145l125 23.006c20.163-50.675 53.499-76.008 99.997-76.008 25.83 0 46.333 6.8345 61.832 20.338 15.5 13.494 23.171 29.334 23.171 47.667 0 20.163-8.0027 35.994-24.174 47.667-16.162 11.498-37.328 17.33-63.332 17.33h-23.502z"/></glyph><glyph horiz-adv-x="730" unicode="Ц"><path d="m74.996 716h145.01v-595.01h279v595.01h145v-595.01h60.002v-277h-121v156h-508.01v716z"/></glyph><glyph horiz-adv-x="667" unicode="Е"><path d="m73 0v716h530v-121.01h-385v-159h358.01v-121h-358.01v-194.01h399v-121h-544z"/></glyph><glyph horiz-adv-x="711" unicode="Є"><path d="m420 418v-121h-223.99c8.1683-64.003 27.163-111 57.169-141 29.996-29.996 66.331-44.999 108.83-44.999 43.665 0 79.834 12.998 108.5 39.167 28.506 26.17 46.002 63.838 52.505 112.84l145-45.008c-16.493-71.666-49.994-128-100.49-169.16-50.334-40.998-115.84-61.667-196.33-61.832-82.667 0.16557-147.67 19.666-195.34 58.834-47.667 39.167-81.665 84.332-102.16 135.49-20.504 51.171-30.668 108.84-30.668 172.67 0 112.33 29.334 202.84 88.168 271.67 58.825 68.667 139.83 103.17 242.83 103.34 79.659-0.16557 144.33-19.17 194.33-57.003 49.838-37.834 82.336-89.161 97.67-154l-143-32.995c-10.33 37.834-29.5 67.168-57.5 87.828-27.835 20.835-59.671 31.174-95.334 31.174-51.171 0-91.663-17.67-121.34-53.002-29.665-35.332-47.326-79.668-52.827-133h223.99z"/></glyph><glyph horiz-adv-x="610" unicode="ö"><path d="m40.004 265.84c0 45.662 11.158 89.833 33.667 132.5 22.5 42.838 54.326 75.336 95.499 97.836 41.163 22.5 87 33.832 137.83 33.832 78.5 0 142.67-25.498 192.83-76.504 50.169-51.162 75.17-115.5 75.17-193.5 0-78.666-25.333-143.83-75.833-195.5-50.666-51.668-114.34-77.498-191.16-77.498-47.501 0-92.841 10.827-136 32.333-43.003 21.497-75.833 53.002-98.332 94.662-22.509 41.504-33.667 92.169-33.667 151.84zm141-7.3404c0-51.493 12.17-91.001 36.5-118.33 24.505-27.504 54.501-41.163 90.33-41.163 35.672 0 65.668 13.66 89.842 41.163 24.164 27.329 36.325 67.168 36.325 119.33 0 50.831-12.16 89.998-36.325 117.34-24.174 27.494-54.17 41.163-89.842 41.163-35.828 0-65.825-13.669-90.33-41.163-24.33-27.338-36.5-66.836-36.5-118.34zm-34.504 327.5v118h118.01v-118h-118.01zm210.51 0v118h118v-118h-118z"/></glyph><glyph horiz-adv-x="556" unicode="å"><path d="m174 359-124 22.003c14 50.666 38.165 88.168 72.328 112.5 34.172 24.33 85.004 36.5 152.34 36.5 61.161 0 106.83-7.1657 136.83-21.672 29.84-14.497 51.006-32.83 63.166-55.164 12.17-22.334 18.342-63.166 18.342-122.83l-2.0053-160.01c0-45.496 2.1708-79.163 6.5034-100.82 4.3325-21.672 12.501-44.834 24.496-69.504h-136c-3.4954 8.9962-7.9935 22.334-13.163 40.004-2.1708 8.1591-3.8358 13.494-4.8384 15.996-23.328-22.996-48.329-40.17-74.996-51.668s-54.998-17.33-85.169-17.33c-53.168 0-95.168 14.497-125.84 43.5-30.659 28.828-45.993 65.494-45.993 109.83 0 29.168 7.0001 55.338 21 78.335 14 22.831 33.501 40.501 58.834 52.662 25.167 12.17 61.492 22.84 108.99 32.002 64.003 12.004 108.51 23.337 133.17 33.667v13.835c0 26.666-6.4942 45.671-19.501 57.169-13.163 11.333-37.834 16.999-73.993 16.999-24.505 0-43.5-4.8292-57.169-14.662-13.835-9.6677-24.836-26.841-33.336-51.337zm184-111c-17.496-5.8319-45.33-12.832-83.495-21-37.999-8.1683-63.001-16.171-74.674-23.833-17.827-12.832-26.832-28.837-26.832-48.338 0-19.326 7.1657-35.828 21.506-49.828 14.331-14 32.498-21 54.667-21 24.661 0 48.329 8.1683 70.829 24.33 16.502 12.501 27.504 27.504 32.664 45.505 3.5046 11.664 5.3352 33.998 5.3352 66.827v27.338zm14 433c0-26.17-9.3273-48.504-27.835-67.168-18.664-18.507-40.998-27.835-67.158-27.835-26.17 0-48.504 9.3273-67.168 27.835-18.507 18.664-27.835 40.998-27.835 67.168 0 26.161 9.3273 48.495 27.835 67.158 18.664 18.507 40.998 27.835 67.168 27.835 26.161 0 48.495-9.1617 67.158-27.66 18.507-18.342 27.835-40.842 27.835-67.333zm-51.999 0c0 11.995-4.1669 21.994-12.501 30.493-8.4994 8.3339-18.498 12.501-30.493 12.501-11.838 0-22.003-4.1669-30.502-12.501-8.3339-8.4994-12.501-18.498-12.501-30.493 0-11.838 4.1669-22.003 12.501-30.502 8.4994-8.3339 18.664-12.501 30.502-12.501 11.995 0 21.994 4.1669 30.493 12.501 8.3339 8.4994 12.501 18.664 12.501 30.502z"/></glyph><glyph horiz-adv-x="777" unicode="Ô"><path d="m43.003 353.66c0 73 11.001 134.34 32.83 184 16.171 36.5 38.505 69.338 66.671 98.332 28.166 29.003 58.999 50.5 92.5 64.675 44.659 18.829 96.162 28.332 154.5 28.332 105.66 0 190-32.839 253.49-98.332 63.341-65.668 95.002-156.84 95.002-273.67 0-115.84-31.496-206.51-94.331-271.84-62.835-65.503-147-98.167-252.17-98.167-106.5 0-191.33 32.498-254.16 97.661-62.835 65.006-94.331 154.67-94.331 269zm149 4.8384c0-81.168 18.829-142.67 56.332-184.67 37.502-41.835 85.169-62.835 142.84-62.835 57.831 0 105.17 20.835 142.33 62.338 37.006 41.66 55.504 104 55.504 187.16 0 82.17-18.002 143.5-54.17 183.83-35.994 40.501-83.826 60.664-143.66 60.664-59.671 0-107.83-20.494-144.33-61.327-36.5-41.007-54.832-102.67-54.832-185.17zm35 422.5 102.5 144h126.33l101.16-144h-110l-56.507 73-52.496-73h-111z"/></glyph><glyph horiz-adv-x="722" unicode="Ã"><path d="m718 0h-156.16l-61.842 163h-287.16l-59.505-163h-153.33l278 716h153.16l286.84-716zm-265 284-99.5 265-96.667-265h196.17zm-197 496h-63.001c-0.34035 7.4968-0.50592 13.338-0.50592 17.505 0 34.163 8.3339 60.499 25.002 78.831 16.502 18.498 37.999 27.669 64.003 27.669 11.498 0 21.994-1.1682 31.827-3.6702 9.8332-2.502 27.669-9.5021 53.508-21 25.995-11.498 46.158-17.33 60.996-17.33 10.33 0 19.004 3.3299 26.004 9.8332 7.1657 6.6597 11.498 17.661 13.494 33.161h63.001c-0.33115-44.493-8.4994-76.164-24.496-95.334-16.171-19.16-36.84-28.663-62.173-28.663-11.167 0-21.994 1.1682-32.664 3.4954-7.4968 2.0053-26.17 9.0054-56.001 20.835-29.996 11.838-51.668 17.67-65.328 17.67-10.505 0-18.507-3.1643-24.339-9.6677-5.9974-6.3378-8.9962-17.505-9.3273-33.336z"/></glyph><glyph horiz-adv-x="332" unicode="²"><path d="m309 433v-78.004h-296.99c3.661 27.669 12.492 52.505 26.666 74.333 14.166 21.837 45.827 51.999 95.159 90.836 37.171 29.003 59.505 48.164 67.002 57.666 10.164 12.335 15.168 24.836 15.168 37.668 0 11.995-4.1669 21.662-12.335 28.828-8.1683 7.1748-20.494 10.67-37.162 10.67-16.668 0-29.168-4.0014-37.337-12.004-8.1683-7.828-13.163-22.5-15.168-43.997l-91.994 7.8372c4.8292 37.999 17.164 65.834 36.665 83.495 25.995 23.171 62.835 34.669 110.5 34.669 45.33 0 80-10.33 103.83-31.165 23.999-20.835 35.994-45.34 35.994-73.671 0-17.496-3.8266-34.163-11.333-49.994-7.4968-15.674-19.335-32.002-35.663-49.001-8.4994-8.3339-30.502-26.501-66-54.501-19.004-14.672-32.498-25.839-40.667-33.667h153.66z"/></glyph><glyph horiz-adv-x="332" unicode="¡"><path d="m237.33 519v-137h-136.99v137h136.99zm-29.665-187 35.663-362.67v-168.33h-148v168.33l35.497 362.67h76.835z"/></glyph><glyph horiz-adv-x="610" unicode="n"><path d="m544 0h-137v264.5c0 56.001-2.9987 92.16-8.8306 108.5-5.9974 16.502-15.5 29.168-28.837 38.33-13.329 9.1709-29.334 13.669-47.998 13.669-23.999 0-45.496-6.5034-64.5-19.501-19.17-12.998-32.167-30.337-39.167-51.668-7.1657-21.497-10.661-61.161-10.661-119.17v-234.66h-137v519h127v-76.164c45.505 58.162 102.67 87.165 171.84 87.165 30.337 0 58.162-5.5007 83.33-16.337 25.333-11.001 44.337-24.827 57.169-41.66 12.998-17.008 22.003-36.169 26.998-57.675 5.1696-21.497 7.6716-52.165 7.6716-92.16v-322.17z"/></glyph><glyph horiz-adv-x="332" unicode="]"><path d="m261 716v-918h-243v108h113v703h-113v107.01h243z"/></glyph><glyph horiz-adv-x="610" unicode="L"><path d="m77.001 0v710h145v-589h359v-121h-504z"/></glyph><glyph horiz-adv-x="332" unicode=";"><path d="m94 382v137h137v-137h-137zm0-244.99h137v-98.167c0-39.673-3.3391-71.169-10.174-94-6.8253-23.006-19.832-43.665-38.827-61.832-19.004-18.333-43.169-32.508-72.337-43.003l-26.666 57.003c27.504 9.1617 47.004 21.828 58.668 37.999 11.498 16.327 17.67 37.999 18.333 64.997h-66v137z"/></glyph><glyph horiz-adv-x="389" unicode="*"><path d="m119.5 386-73.496 57.5c23.502 26.501 47.832 51.668 73.165 75.833 10.164 9.8332 16.502 16.005 19.004 18.673-8.0027 1.3338-31.339 6.6597-69.67 15.996-27.504 6.8345-45.671 11.829-54.501 15.003l29.5 85.997c42.166-17.164 80-36.169 113.17-57.003-7.8372 53.168-11.673 96.502-11.673 130h86.006c0-23.833-4.3325-67.664-13.172-131.16 6.5034 2.4928 20.504 8.8306 41.835 18.995 29.334 13.338 56.166 24.67 80.837 34.163l25.498-87.993c-36.003-8.1683-77.498-16.171-124.83-23.999l58.162-66.505c11.673-13.494 20.835-24.496 27.669-32.995l-74.499-49.506-64.997 109.84c-19.666-35.341-42.332-73-68.005-112.84z"/></glyph><glyph horiz-adv-x="834" unicode="⅛"><path d="m243 355h-92.997v251c-30.337-21.497-65.337-37.502-105-47.998v75.998c28.837 7.4968 54.667 19.998 78.004 37.502 23.162 17.496 37.999 35.332 44.493 53.499h75.502v-370zm1.4994-381h-77.663l423.34 751h77.498l-423.17-751zm336.17 204c-32.498 15.168-48.669 39.83-48.669 74.002 0 27.66 11.507 50.666 34.669 69.164 22.996 18.498 55.835 27.835 98.332 27.835 37.999 0 69.835-8.665 95.499-25.839 25.673-17.164 38.505-41.495 38.505-72.659 0-30.834-15.665-55.007-47.17-72.503 40.17-15.996 60.168-45.165 60.168-87.331 0-34.172-12.832-62.173-38.496-84.001-25.673-21.837-60.342-32.673-103.84-32.673-45.165 0-81.159 10.505-108.17 31.67-26.998 21.166-40.501 48.338-40.501 81.499 0 40.336 19.841 70.672 59.671 90.836zm39.333 66.331c0-22.831 15.334-34.329 45.836-34.329 30.162 0 45.165 12.16 45.165 36.334 0 23.833-15.003 35.663-45.165 35.663-30.502 0-45.836-12.501-45.836-37.668zm-7.0001-151.66c0-15.168 5.1696-27.504 15.5-36.831 10.33-9.1709 23.337-13.835 38.671-13.835 15.5 0 28.166 4.3325 37.999 13.163 9.8332 8.8398 14.828 21.166 14.828 37.171 0 15.168-4.8292 27.329-14.331 36.334-9.5021 8.8306-22.334 13.329-38.496 13.329-16.668 0-30.006-4.4981-39.673-13.329-9.6585-9.0054-14.497-21-14.497-36.003z"/></glyph><glyph horiz-adv-x="667" unicode="₱"><path d="m657 394h-48.164c-31.165-101.33-130.17-152-296.84-152h-94v-242h-145v394h-64.003v64.003h64.003v41.991h-64.003v64.003h64.003v152.01h231.83c82.833 0 147.17-9.3365 192.67-27.835 58.999-23.668 96.667-65.006 113.34-124.17h46.158v-64.003h-36.5c0.34035-7.1657 0.50592-13.329 0.50592-18.333 0-10.496-0.16557-18.333-0.50592-23.659h36.5v-64.003zm-224.33 170c-28.994 20.669-77.332 30.999-145.16 30.999h-69.504v-30.999h214.67zm39.342-84.332c0 7.0001-0.50592 13.835-1.5086 20.329h-252.5v-41.991h252.5c1.0026 5.9974 1.5086 13.163 1.5086 21.662zm-42.341-85.666h-211.67v-30.999h78.841c58.999 0 103.33 10.33 132.83 30.999z"/></glyph><glyph horiz-adv-x="556" unicode="₠"><path d="m551 0h-318v222c-72.162 0-128.84 23.668-170 70.838-38.671 44.502-57.997 103.16-57.997 176 0 77.166 19.492 138.83 58.494 185 41.669 49.497 100.5 74.168 176.5 74.168 106 0 173-48.669 201-146.16l-101-23.833c-12.666 56.001-47.832 84.001-105.66 84.001-83.495 0-125.33-55.338-125.33-165.83 0-52.505 7.4968-91.838 22.5-118.34 19.501-34.494 53.333-51.834 101.5-51.834v197h308v-85.004h-206v-112h188v-84.001h-188v-136.99h216v-85.004z"/></glyph><glyph horiz-adv-x="0" unicode="⁭"><path d="m16.999 480v-614h-35v614h-96.998l114.5 209 114.49-209h-96.998z"/></glyph><glyph horiz-adv-x="332" unicode="›"><path d="m36.996 33.998 127 220.84-127 225.16h107.01l155-225.16-155-220.84h-107.01z"/></glyph><glyph horiz-adv-x="277" unicode="‘"><path d="m212 426h-137v98.167c0 39.83 3.5046 71.16 10.505 94 7.0001 22.996 19.832 43.665 38.671 61.832 18.829 18.333 42.828 32.664 71.997 42.994l26.832-56.994c-27.163-9.1709-46.499-21.837-58.337-37.999-11.829-16.337-17.992-37.999-18.664-65.006h66v-136.99z"/></glyph><glyph horiz-adv-x="556" unicode="ӯ"><path d="m5.9974 519h146l124.5-368.16 121.5 368.16h142l-183-499.5-33.004-90.164c-12.17-30.171-23.668-53.168-34.669-69.173-10.827-15.831-23.493-28.828-37.668-38.661-14.166-9.9988-31.661-17.67-52.496-23.171-20.669-5.5007-44.162-8.3339-70.332-8.3339-26.335 0-52.33 2.8332-77.838 8.3339l-11.995 107.01c21.497-4.1669 40.998-6.3378 58.328-6.3378 32.002 0 55.67 9.3365 71.004 28.166 15.334 18.829 27.163 42.838 35.332 71.831l-197.67 520zm110 67.002v91.001h315v-91.001h-315z"/></glyph><glyph horiz-adv-x="626" unicode="Ӟ"><path d="m175 521-141 33.004c30.337 116.66 116.5 175 258.51 175 83.992 0 147.5-18.498 190.33-55.504 42.838-36.996 64.169-80.496 64.169-130.5 0-34.163-9.8332-64.997-29.334-92.666-19.501-27.504-48.835-51.668-87.837-72.668 47.336-16.327 83.008-39.333 106.68-69.164 23.659-29.996 35.497-66.671 35.497-110.5 0-63.001-23.006-113.83-69.164-152.67-46.002-38.827-115-58.328-206.84-58.328-74.83 0-134 12.501-177.33 37.493-43.334 25.002-75.833 71.84-97.67 140.51l132 42.994c13.669-43.16 32.002-71.16 54.667-83.826 22.665-12.841 50.666-19.17 84.001-19.17 45.671 0 78.997 9.8332 99.997 29.665 20.835 19.832 31.339 42.497 31.339 68.17 0 29.334-11.838 53.168-35.506 71.16-23.493 18.002-59.165 27.007-106.67 27.007h-32.83v108h16.502c44.162 0 77.994 9.9988 101.33 29.831 23.502 19.832 35.166 46.333 35.166 79.163 0 26.17-9.5021 48.173-28.497 66.174-19.004 17.827-46.167 26.832-81.508 26.832-60.499 0-99.16-30.006-115.99-90.008zm-46.499 260.01v118h118v-118h-118zm210.5 0v118h118v-118h-118z"/></glyph><glyph horiz-adv-x="833" unicode="Ӎ"><path d="m842 121-94.993-277h-120l60.002 156h-58.999v563.67l-142.17-563.67h-139.16l-141.67 563.67v-563.67h-134v716h216l129.99-488.34 128.5 488.34h216.5v-595.01h80z"/></glyph><glyph horiz-adv-x="856" unicode="Ҽ"><path d="m816 361.34c0-14.837-1.8397-35.838-5.3352-63.341h-484.67c5.8411-53.995 22.674-97.495 50.334-130.32 30.834-37.171 72.337-55.67 124.34-55.67 78.5 0 129.66 39.333 153.33 118l143-32.664c-15.996-69.504-50.997-122.67-105.33-159.5-50.831-33.832-112.83-50.831-186.34-50.831-106.67 0-189.83 36.334-249.33 108.83-43.84 53.839-70.176 121.17-79.006 202.16-114.67 0.34035-171.99 47.842-171.99 142.5 0 39.002 5.8319 77.332 17.496 114.67l95.334-18.498c-5.1696-21.837-7.8372-42.838-7.8372-63.001 0-22.168 6.0066-37.337 18.167-45.34 9.3365-6.163 25.333-9.3273 47.832-9.3273 11.342 120.5 61.501 208.83 150.34 265 47.501 29.996 104.83 44.999 171.83 44.999 75.17 0 136.67-19.666 184.5-58.834 88.83-73.165 133.33-176.17 133.33-308.83zm-153 57.666c-6.8345 53.168-22.5 95.996-46.839 128-29.334 38.671-68.833 57.997-118.16 57.997-98.167 0-155.34-61.998-172-185.99h337.01z"/></glyph><glyph horiz-adv-x="556" unicode="ҫ"><path d="m531 175c-23.337-103.5-81.839-164.17-175.17-182.17 8.8306-37.171 13.163-67.002 13.163-89.502 0-36.5-11.167-64.5-33.336-84.001-22.334-19.501-51.999-29.334-88.996-29.334-30.337 0-61.832 7.0001-94.671 21v66.165c23.668-7.4968 45.836-11.167 66.34-11.167 46.499 0 69.66 25.342 69.66 75.842 0 17.33-1.159 32.333-3.4954 45.165-77.672 1.3338-138.17 27.66-181.5 79.328-40.667 48.173-60.996 112.17-60.996 191.67 0 82.502 21.166 147.83 63.498 195.66 44.171 50.84 106.83 76.339 187.83 76.339 121.5 0 198.5-55.164 230.67-165.5l-135.01-24.505c-9.1617 54.667-40.326 82.005-93.66 82.005-74.839 0-112.34-51.337-112.34-154.17 0-112.5 38.008-168.83 114.01-168.83 53.664 0 86.669 32.995 98.995 98.995l135.01-22.996z"/></glyph><glyph horiz-adv-x="610" unicode="Қ"><path d="m600-156h-120v156h-47.998l-86.163 185.33c-1.3338 2.6676-4.1669 7.6716-8.3339 15.168-2.3364 4.0014-8.3339 15.168-18.002 33.832-16.171 30.668-28.506 50.169-37.006 58.668-14.166 13.669-35 20.669-62.495 21v-314h-145.01v716h145.01v-304c36.003 3.4954 62.67 18.333 79.834 44.328 4.3325 7.1657 16.833 37.668 37.668 91.673 26.832 70.498 54.161 116.33 81.499 137.5 30.493 23.328 81.665 35 154 35 3.1643 0 10.164 0.16557 21 0.49672v-106.5l-20.504 0.49672c-48.164 1.3338-80.837-13.494-98.001-44.493-8.4994-15.003-21-45.671-37.502-92.335-10.496-29.334-20.329-50.5-29.831-63.498-11.664-16.833-29.334-32.002-53.002-45.34 32.498-8.9962 59.165-27.494 80-54.998 23.337-30.999 46.333-70.001 68.667-117.16l36.169-76.173h60.002v-277z"/></glyph><glyph horiz-adv-x="0" unicode="҉"><path d="m392 589-30.999-30.999c-7.4968 5.5007-15.5 8.3339-23.659 8.3339-13.503 0-27.669-7.506-42.838-22.334l26.501-26.335-50.997-50.666-53.002 52.671 47.998 48.329c16.502 16.502 36.5 27.163 60.168 31.836 24.496 4.8292 46.83 1.1682 66.827-10.836zm72.006-340h-43.003c-3.3299 24.661-22.334 36.996-56.994 36.996v-36.996h-72.006v74.996h68.005c23.999 0 45.662-6.5034 64.831-19.666 20.669-13.835 33.667-32.333 39.167-55.329zm-434 331h-74.996v67.996c0 23.668 6.8345 45.671 20.504 65.668 13.66 19.998 31.827 32.83 54.492 38.33v-42.994c-24.661-3.3391-36.996-22.334-36.996-57.003h36.996v-71.997zm321.67-588.84c0-16.668-4.1669-32.002-12.666-46.167l-30.999 30.999c5.5007 7.4968 8.3339 15.5 8.3339 23.668 0 13.494-7.506 27.66-22.334 42.828l-26.335-26.501-50.666 51.006 52.662 53.002 47.832-48.007c22.84-22.996 34.172-49.994 34.172-80.828zm-566.67 487-53.168-53.168-47.832 48.329c-16.668 17.008-27.172 36.84-31.67 59.505-4.9948 24.836-1.3338 47.17 10.67 67.168l30.999-30.999c-5.5007-7.506-8.3339-15.334-8.3339-23.668 0-13.338 7.4968-27.669 22.334-42.672l26.335 26.335 50.666-50.831zm-75.005-257.16h-67.996c-23.999 0-45.671 6.4942-64.831 19.666-20.669 13.825-33.667 32.333-39.167 55.329h42.994c3.3391-24.67 22.334-36.996 57.003-36.996v36.996h71.997v-74.996zm320-318c0-23.999-6.4942-45.671-19.666-64.831-13.825-20.669-32.333-33.667-55.329-39.167v42.994c24.67 3.3391 36.996 22.334 36.996 57.003h-36.996v71.997h74.996v-67.996zm-244.99 122.83-48.338-47.832c-16.999-16.493-36.831-27.163-59.496-31.661-24.836-5.004-47.17-1.3338-67.168 10.661l30.999 30.999c7.4968-5.4915 15.334-8.3247 23.668-8.3247 13.329 0 27.669 7.4968 42.663 22.325l-26.326 26.335 50.831 50.666 53.168-53.168z"/></glyph><glyph horiz-adv-x="1120" unicode="Ѹ"><path d="m1104 519-216.16-589.33c-18.498-50.5-42.663-86.337-72.162-107.67-29.674-21.331-70.166-32.002-122-32.002-26.335 0-52.174 2.8332-77.507 8.3339l-12.16 107.01c21.497-4.1669 40.832-6.3378 57.997-6.3378 52.165 0 87.496 33.17 106 99.666l-183 520.33h145.17l109.33-368.34 122.33 368.34h142.16zm-534-161c0-114.49-20.494-203.5-61.492-267-45.174-69.338-112.51-104-202-104-89.502 0-156.84 34.66-202 104-41.007 63.498-61.501 152.5-61.501 267 0 114.5 20.494 203.5 61.501 267.01 45.165 69.329 112.5 104 202 104 89.492 0 156.83-34.669 202-104 40.998-63.507 61.492-152.5 61.492-267.01zm-146 0c0 79.172-11.333 140.84-34.163 184.84-21 40.832-48.835 61.17-83.33 61.17-34.504 0-62.173-20.338-83.339-61.17-22.831-43.997-34.163-105.66-34.163-184.84 0-79.163 11.333-140.83 34.163-184.84 21.166-40.832 48.835-61.161 83.339-61.161 34.494 0 62.329 20.329 83.33 61.161 22.831 44.006 34.163 105.67 34.163 184.84z"/></glyph><glyph horiz-adv-x="556" unicode="ѧ"><path d="m544 0h-141.17l-62.66 174h-20.172v-174h-88.002v174h-20.66l-62.338-174h-143.99l209.33 519h124.33l205.34-519zm-232.83 254-35.672 99.004-35.497-99.004h71.169z"/></glyph><glyph horiz-adv-x="277" unicode="і"><path d="m71.997 589v127h137v-127h-137zm0-589v519h137v-519h-137z"/></glyph><glyph horiz-adv-x="556" unicode="х"><path d="m5.5007 0 187 267.34-178.99 251.66h167.33l91.663-142.67 97.339 142.67h160.66l-175.83-245.83 191.84-273.17h-167.17l-106.83 160.84-106.34-160.84h-160.66z"/></glyph><glyph horiz-adv-x="634" unicode="д"><path d="m501 0h-393v-137h-111v249h56.001c23.328 26.17 42.497 66.836 57.831 122.33 15.168 55.338 24.33 150.33 27.163 284.67h419v-407h56.001v-249h-112v137zm-80 112 0.50592 293.99h-166.5c-5.5007-143.5-28.166-241.5-68.005-293.99h234z"/></glyph><glyph horiz-adv-x="621" unicode="У"><path d="m-0.49672 716h162.83l166.67-370.67 142.66 370.67h150.84l-242.17-544.17c-26.335-59.009-53.168-103.84-80.496-134.68-27.338-30.824-62.504-46.158-105.84-46.158-42.663 0-75.998 2.8332-99.997 8.3339v107.66c20.504-1.3338 39.002-1.9961 55.504-1.9961 33.326 0 57.325 6.163 71.831 18.333 14.331 12.335 28.332 38.836 41.495 79.337l-263.33 513.33z"/></glyph><glyph horiz-adv-x="722" unicode="В"><path d="m73 716h286.33c56.838 0 99.004-2.3364 126.84-7.0001 28-4.8384 52.827-14.672 74.83-29.509 22.003-14.994 40.336-34.826 54.998-59.662 14.672-24.836 22.003-52.836 22.003-83.67 0-33.326-9.0054-64.16-26.998-91.994-18.002-28-42.506-48.835-73.34-62.835 43.5-12.832 76.835-34.504 100.34-65.172 23.337-30.659 35-66.662 35-108.17 0-32.664-7.506-64.334-22.665-95.168-15.168-30.834-35.838-55.495-62.173-73.993-26.161-18.333-58.494-29.665-96.998-34.007-23.999-2.4928-82.161-4.1669-174.33-4.8292h-243.84v716zm145-119v-165h94.671c56.166 0 91.167 0.83707 104.84 2.502 24.661 2.8332 44.162 11.333 58.328 25.498s21.166 32.664 21.166 55.67c0 22.159-6.163 39.995-18.333 53.83-12.16 13.835-30.328 22.168-54.326 25.002-14.34 1.6649-55.504 2.502-123.33 2.502h-83.008zm0-284v-192h134c51.999 0 85.169 1.4994 99.169 4.3325 21.497 4.0014 38.993 13.503 52.496 28.672 13.503 15.334 20.338 35.497 20.338 60.996 0 21.672-5.1696 39.839-15.674 54.832-10.33 15.003-25.498 26.004-45.165 32.839-19.666 6.8345-62.495 10.33-128.33 10.33h-116.84z"/></glyph><glyph horiz-adv-x="669" unicode="Ё"><path d="m73 0v716h530v-121.01h-385v-159h358.01v-121h-358.01v-194.01h399v-121h-544zm101.5 781v118h118.01v-118h-118.01zm210.51 0v118h118v-118h-118z"/></glyph><glyph horiz-adv-x="610" unicode="ó"><path d="m40.004 265.84c0 45.662 11.158 89.833 33.667 132.5 22.5 42.838 54.326 75.336 95.499 97.836 41.163 22.5 87 33.832 137.83 33.832 78.5 0 142.67-25.498 192.83-76.504 50.169-51.162 75.17-115.5 75.17-193.5 0-78.666-25.333-143.83-75.833-195.5-50.666-51.668-114.34-77.498-191.16-77.498-47.501 0-92.841 10.827-136 32.333-43.003 21.497-75.833 53.002-98.332 94.662-22.509 41.504-33.667 92.169-33.667 151.84zm141-7.3404c0-51.493 12.17-91.001 36.5-118.33 24.505-27.504 54.501-41.163 90.33-41.163 35.672 0 65.668 13.66 89.842 41.163 24.164 27.329 36.325 67.168 36.325 119.33 0 50.831-12.16 89.998-36.325 117.34-24.174 27.494-54.17 41.163-89.842 41.163-35.828 0-65.825-13.669-90.33-41.163-24.33-27.338-36.5-66.836-36.5-118.34zm64.003 327.5 67.996 146h153l-135-146h-85.997z"/></glyph><glyph horiz-adv-x="556" unicode="â"><path d="m174 359-124 22.003c14 50.666 38.165 88.168 72.328 112.5 34.172 24.33 85.004 36.5 152.34 36.5 61.161 0 106.83-7.1657 136.83-21.672 29.84-14.497 51.006-32.83 63.166-55.164 12.17-22.334 18.342-63.166 18.342-122.83l-2.0053-160.01c0-45.496 2.1708-79.163 6.5034-100.82 4.3325-21.672 12.501-44.834 24.496-69.504h-136c-3.4954 8.9962-7.9935 22.334-13.163 40.004-2.1708 8.1591-3.8358 13.494-4.8384 15.996-23.328-22.996-48.329-40.17-74.996-51.668s-54.998-17.33-85.169-17.33c-53.168 0-95.168 14.497-125.84 43.5-30.659 28.828-45.993 65.494-45.993 109.83 0 29.168 7.0001 55.338 21 78.335 14 22.831 33.501 40.501 58.834 52.662 25.167 12.17 61.492 22.84 108.99 32.002 64.003 12.004 108.51 23.337 133.17 33.667v13.835c0 26.666-6.4942 45.671-19.501 57.169-13.163 11.333-37.834 16.999-73.993 16.999-24.505 0-43.5-4.8292-57.169-14.662-13.835-9.6677-24.836-26.841-33.336-51.337zm184-111c-17.496-5.8319-45.33-12.832-83.495-21-37.999-8.1683-63.001-16.171-74.674-23.833-17.827-12.832-26.832-28.837-26.832-48.338 0-19.326 7.1657-35.828 21.506-49.828 14.331-14 32.498-21 54.667-21 24.661 0 48.329 8.1683 70.829 24.33 16.502 12.501 27.504 27.504 32.664 45.505 3.5046 11.664 5.3352 33.998 5.3352 66.827v27.338zm-235 338 102.5 143.99h126.33l101.16-143.99h-110l-56.507 73-52.496-73h-111z"/></glyph><glyph horiz-adv-x="722" unicode="Ñ"><path d="m73 0v716h140.33l294.67-479.84v479.84h134v-716h-144.84l-290.16 470.67v-470.67h-134zm160.67 780h-63.001c-0.34035 7.4968-0.50592 13.338-0.50592 17.505 0 34.163 8.3339 60.499 25.002 78.831 16.502 18.498 37.834 27.669 64.003 27.669 11.333 0 21.994-1.1682 31.827-3.6702 9.6677-2.502 27.669-9.5021 53.508-21 25.995-11.498 46.167-17.33 60.83-17.33 10.496 0 19.17 3.3299 26.17 9.8332 7.0001 6.6597 11.498 17.661 13.494 33.161h63.001c-0.33115-44.493-8.4994-76.164-24.661-95.334-16.005-19.16-36.674-28.663-62.007-28.663-11.167 0-21.994 1.1682-32.664 3.4954-7.4968 2.0053-26.17 9.0054-56.166 20.835-29.831 11.838-51.668 17.67-65.162 17.67-10.505 0-18.673-3.1643-24.505-9.6677-5.8319-6.3378-8.8306-17.505-9.1617-33.336z"/></glyph><glyph horiz-adv-x="722" unicode="À"><path d="m718 0h-156.16l-61.842 163h-287.16l-59.505-163h-153.33l278 716h153.16l286.84-716zm-265 284-99.5 265-96.667-265h196.17zm-22.003 497.01h-85.997l-135 146h153l67.996-146z"/></glyph><glyph horiz-adv-x="552" unicode="¯"><path d="m-8.9962 758v89.005h570v-89.005h-570z"/></glyph><glyph horiz-adv-x="279" unicode="|"><path d="m87-210v938h108v-938h-108z"/></glyph><glyph horiz-adv-x="556" unicode="k"><path d="m67.002 0v716h136.99v-379.84l160.5 182.83h169l-177-189.66 190-329.34h-148l-131 234.17-63.507-68.005v-166.16h-136.99z"/></glyph><glyph horiz-adv-x="610" unicode="Z"><path d="m9.9988 0v130l377.33 465h-334.33v121.01h523.99v-112l-392-483.01h407v-121h-582z"/></glyph><glyph horiz-adv-x="277" unicode="I"><path d="m67.996 0v716h145.01v-716h-145.01z"/></glyph><glyph horiz-adv-x="556" unicode="8"><path d="m160.33 387.17c-35.332 15.003-61.161 35.497-77.166 61.832-16.162 26.17-24.164 54.998-24.164 86.172 0 53.499 18.664 97.661 55.835 132.5 37.162 34.835 90.164 52.33 158.66 52.33 67.996 0 120.67-17.496 158.17-52.33 37.502-34.835 56.332-78.997 56.332-132.5 0-33.17-8.665-62.67-26.004-88.674-17.164-25.83-41.495-45.662-72.834-59.33 39.839-15.996 70.001-39.333 90.836-70.001 20.669-30.834 30.999-66.165 30.999-106.34 0-66.331-21-120.16-63.166-161.66-42-41.504-98.001-62.164-167.99-62.164-65.006 0-119 17.164-162.34 51.493-51.006 40.336-76.504 96.005-76.504 166.5 0 38.836 9.6677 74.499 28.837 107 19.16 32.508 49.332 57.5 90.495 75.17zm28.672 138c0-27.329 7.6624-48.826 22.996-64.16 15.5-15.334 36.003-23.006 61.501-23.006 26.004 0 46.664 7.8372 62.164 23.337 15.5 15.5 23.337 36.996 23.337 64.334 0 25.83-7.6716 46.499-22.996 61.998-15.5 15.5-35.838 23.337-61.005 23.337-26.335 0-47.17-7.8372-62.67-23.502-15.5-15.665-23.328-36.5-23.328-62.338zm-13.007-306.99c0-38.174 9.6677-67.839 29.003-89.171 19.335-21.331 43.334-32.002 72.172-32.002 28.332 0 51.659 10.339 70.166 30.834 18.498 20.504 27.66 50.169 27.66 88.83 0 33.841-9.3273 61.005-28.166 81.508-18.829 20.494-42.663 30.834-71.5 30.834-33.501 0-58.328-11.673-74.83-35-16.337-23.337-24.505-48.504-24.505-75.833z"/></glyph><glyph horiz-adv-x="237" unicode="'"><path d="m70.838 462-25.839 133.17v120.84h149v-120.84l-22.334-133.17h-100.82z"/></glyph><glyph horiz-adv-x="494" unicode="∂"><path d="m185 549-67.002 42c16.999 46.002 41.504 80.506 73.671 103.5 32.167 23.006 67.996 34.504 107.49 34.504 47.336 0 85.666-16.337 114.67-49.001 42.838-47.336 64.169-120.34 64.169-219.16 0-85.169-13.503-167.84-40.667-247.67-27.172-80-64.666-137.66-112.67-173-47.998-35.506-98.498-53.168-151.32-53.168-44.999 0-81.674 14.994-110 44.999-28.166 29.996-42.332 72.668-42.332 128.16 0 51.503 14.166 100.83 42.663 148.17 28.341 47.336 71.84 84.829 130.17 112.5 58.503 27.669 128.5 40.832 210.17 39.167-0.33115 65.337-12.335 113.83-36.169 145.16-17.661 23.171-41.329 34.835-71.16 34.835-22.509 0-42.175-6.4942-59.009-19.326-16.833-12.841-34.329-36.84-52.662-71.675zm213.17-178.99c-9.5021 0.33115-16.668 0.49672-21.672 0.49672-44.659 0-86.494-8.9962-125.16-27.163-38.661-18.002-68.161-44.006-88.168-77.498-20.163-33.501-30.162-67.333-30.162-101.18 0-25.498 6.8345-45.993 20.669-61.492 13.66-15.5 29.831-23.171 48.495-23.171 38.836 0 74.333 18.664 106.34 56.166 46.002 53.83 75.998 131.83 89.667 233.84z"/></glyph><glyph horiz-adv-x="610" unicode="₮"><path d="m590 595h-211v-100.67l153 59.671v-126l-153-59.662v-90.008l153 59.671v-126l-153-59.662v-152.34h-145v95.665l-153-59.662v126l153 59.662v89.998l-153-59.662v126l153 59.662v157.33h-211v121.01h567.01v-121.01z"/></glyph><glyph horiz-adv-x="0" unicode="⁪"><path d="m-115 515h96.998v140h-96.998v35h229v-35h-96.998v-140h96.998v-35h-96.998v-614h-35v614h-96.998v35z"/></glyph><glyph horiz-adv-x="1000" unicode="…"><path d="m764 0v137h136.99v-137h-136.99zm-333 0v137h137v-137h-137zm-333 0v137h137v-137h-137z"/></glyph><glyph horiz-adv-x="1000" unicode="―"><path d="m32.002 208v103h936v-103h-936z"/></glyph><glyph horiz-adv-x="556" unicode="ӽ"><path d="m544-70.838c0-43.665-14.497-78.16-43.665-103.49-27.172-23.833-61.667-35.672-103.5-35.672-27.163 0-59.165 4.8384-95.83 14.672l23.999 107.66c14.662-2.8332 25.995-4.3325 34.163-4.3325 33.998 0 51.171 11.333 51.171 34.172 0 11.995-13.835 37.502-41.504 76.495l-94.837 133.67-106.83-152.34h-161.17l187.01 266.66-179 252.33h168l92.832-135.5 95.002 135.5h161.17l-176.5-251.84 124.5-179.83c43.325-64.334 64.997-117.16 64.997-158.17z"/></glyph><glyph horiz-adv-x="711" unicode="Ӭ"><path d="m291 418h224c-5.8319 53.333-23.668 97.67-53.333 133-29.665 35.332-70.001 53.002-120.83 53.002-38.671 0-71.004-10.836-97.33-32.333-26.335-21.506-44.834-50.003-55.504-85.666l-143 32.995c14.672 63.498 46.83 114.34 96.833 152.67 49.838 38.165 114.67 57.334 194.67 57.334 104 0 185.33-34.669 243.84-104 58.494-69.338 87.662-159.67 87.662-271.01 0-75.667-13.494-140.66-40.667-195.16-27.163-54.501-64.5-96.833-112-126.83-47.326-30.006-104.5-44.999-171.5-44.999-162.83 0-263.16 77.001-300.83 230.99l145 45.008c7.4968-51.668 25.83-89.842 55.164-114.67 29.5-24.836 64.5-37.337 105.33-37.337 42.341 0 78.335 14.837 108.34 44.337 29.996 29.5 49.332 76.835 58.162 141.67h-224v121zm-131.49 363v118h118v-118h-118zm210.5 0v118h118v-118h-118z"/></glyph><glyph horiz-adv-x="556" unicode="ӛ"><path d="m524 262.33c0-77.829-19.666-142.16-58.999-192.66-43.334-55.173-102.84-82.667-178.67-82.667-87.828 0-152.67 30.999-194.67 92.832-35.994 53.499-53.333 126.17-51.659 218.16h343c-1.0026 36.84-10.496 67.002-28.663 90.339-20.172 25.83-47.832 38.661-83.173 38.661-43.831 0-72.834-24.661-87.165-73.993l-136.99 22.996c35.828 102.66 111 154 225.49 154 90.504 0 157.33-29.5 200.17-88.499 34.163-47.004 51.337-106.67 51.337-179.17zm-143.51-48.329h-204.5c1.0026-34.007 9.5021-62.007 25.342-84.341 18.498-25.158 43.997-37.659 76.495-37.659 33.004 0 58.834 12.326 77.332 37.162 17.339 22.334 25.673 50.5 25.333 84.838zm-279.99 372v118h118v-118h-118zm210.5 0v118h118v-118h-118z"/></glyph><glyph horiz-adv-x="604" unicode="ӊ"><path d="m607 111-89.998-248h-111.01l58.172 137h-63.166v218h-198v-218h-137v519h137v-190h198v190h137v-408h68.998z"/></glyph><glyph horiz-adv-x="580" unicode="ҹ"><path d="m516 0h-137v207.5c-25.664-6.8345-46.995-11.829-63.994-15.168v-108.33h-51.999v102h-5.8411c-40.501-0.67149-78.16 8.3339-113 27.163-35 18.664-59.165 44.162-72.503 76.329-10.496 25.333-15.665 60.508-15.665 105.51v124h139v-124.16c0-25.673 1.8305-44.337 5.3352-56.175 5.9974-17.827 17.496-31.992 34.835-42.497 8.4994-5.1696 17.661-8.9962 27.835-11.167v133h51.999v-136c19.492 1.9961 40.832 7.1657 63.994 15.665v221.34h137v-519z"/></glyph><glyph horiz-adv-x="722" unicode="Ҩ"><path d="m457.83 156c34.172 34.504 51.171 86.669 51.171 156.34 0 114.49-14.837 171.66-44.337 171.66-15.5 0-28.497-16.668-39.333-50.169-10.827-33.326-16.327-73.827-16.327-121.49 0-72.006 16.327-124.17 48.826-156.34zm251.18-140.66c-39.673-18.829-79.172-28.332-118.5-28.332-45.496 0-88.168 8.4994-127.83 25.333-37.171-16.833-78.335-25.333-123.5-25.333-112.67 0-195.16 39.83-247.67 119.66-41.66 63.166-62.495 147-62.495 251.66 0 102.51 19.666 186.34 58.999 251.51 48.329 79.494 121.33 119.17 218.83 119.17 32.333 0 67.499-9.5021 105.17-28.332l-48.835-108.34c-18.829 8.4994-37.337 12.666-55.504 12.666-48.495 0-84.498-32.333-107.83-96.833-16.493-44.668-24.827-94.662-24.827-150.17 0-55.495 9.9988-105.33 29.831-149.66 28.663-63.838 73-96.005 133.33-96.336-38.836 55.495-58.162 122.33-58.162 200.5 0 88.002 14.994 157.83 44.999 209.33 32.498 55.504 78.997 83.164 139.66 83.164 115.51 0 173.34-97.495 173.34-292.5 0-73.331-19.832-140.17-59.505-200.5h11.673c27.494 0 54.161 8.665 79.834 25.83l39.002-122.5z"/></glyph><glyph horiz-adv-x="709" unicode="җ"><path d="m710-137h-111v137h-35.166l-65.834 149.84c-10.496 23.668-19.335 39.83-26.501 48.164-11.829 14-27.669 21.672-47.501 23.006v-221h-136.99v221c-17.67-1.3338-29.84-5.1696-36.674-11.673-12.492-11.995-24.827-32.002-36.996-59.496l-65.834-149.84h-147.5l73 142.84c36.5 71.335 75.005 112.33 115.67 122.83-29.84 11.673-53.002 41.338-69.173 89.005-11.995 34.835-22.996 56.001-32.83 63.332-9.9988 7.3312-32.839 11.001-68.667 11.001v91.001c26.998 1.6649 45.836 2.502 56.497 2.502 39.333 0 69.504-10.67 90.67-32.002 16.502-16.337 32.333-45.836 47.336-88.334 11.995-34.338 19.998-54.998 23.833-61.832 12.666-22.168 29.5-33.667 50.666-34.338v213h136.99v-213c21.506 0 38.505 11.333 50.84 33.832 3.661 6.1722 11.664 27.007 23.999 62.338 14.994 43.169 30.999 73 47.998 89.327 21.166 20.669 51.999 31.008 92.335 31.008 9.4929 0 27.835-0.83707 54.832-2.502v-91.001c-36.003 0-59.165-3.8358-69.338-11.333-10.164-7.506-21.331-28.506-33.161-63.001-16.171-47.667-39.167-77.332-68.998-89.005 45.993-9.3273 84.498-50.325 115.5-122.5l18.002-32.167h53.995v-248z"/></glyph><glyph horiz-adv-x="0" unicode="҆"><path d="m63.001 660.17c0-38.836-6.8345-67.839-20.504-87.165-13.66-19.335-38.661-36.674-75.161-52.008l-23.337 45.008c21.837 8.9962 36.334 16.999 43.5 23.833 9.9988 9.6585 15.168 24.33 15.168 44.162h-51.668v94h112v-67.83z"/></glyph><glyph horiz-adv-x="646" unicode="ѵ"><path d="m641 470.5-62.504-101.99c-22.5 13.66-41.329 20.494-56.663 20.494-19.832 0-37.834-20.494-54.17-61.492l-130.32-327.5h-123.51l-208.82 519h143.99l126-353.33 87 240.33c12.335 34.172 24.505 59.671 36.5 76.173 24.164 31.827 54.667 47.832 91.838 47.832 43.831 0 94.165-19.832 150.66-59.505z"/></glyph><glyph horiz-adv-x="975" unicode="Ѥ"><path d="m933 218c-17.164-74.83-51.999-132.33-104.5-172.16-51.171-39.167-115.34-58.834-192.84-58.834-69.66 0-129.83 16.162-180.67 48.495-52.662 33.667-91.829 82.336-117.16 146-14.331 35.506-23.668 74.002-27.835 115.51h-96.998v-297h-145.01v716h145.01v-298h97.495c9.1709 83.33 37.502 152.67 85.004 208 58.834 68.667 139.84 103 243 103 74.333 0 136.51-16.999 186.5-50.831 54.17-36.5 89.336-89.502 106-159.17l-143-32.995c-10.164 36.159-28.837 64.997-56.332 86.163-27.338 21.166-59.836 31.836-97.339 31.836-51.668 0-93.163-18.507-124.83-55.67-28.166-33.17-44.999-76.67-50.5-130.33h225v-121h-225c6.8345-53.499 22.665-96.336 47.501-128.5 29.334-38.33 69.164-57.5 119.5-57.5 46.333 0 83.67 14.166 112 42.332 27.172 26.666 43.831 63.166 50.003 109.67l145-45.008z"/></glyph><glyph horiz-adv-x="416" unicode="ѓ"><path d="m66 519h351v-111h-214v-408h-137v519zm66 67.002 68.005 146h153l-135.01-146h-85.997z"/></glyph><glyph horiz-adv-x="489" unicode="т"><path d="m9.9988 519h469.01v-111h-166.01v-408h-137v408h-166v111z"/></glyph><glyph horiz-adv-x="617" unicode="б"><path d="m462 733h93.006c-2.9987-41.173-13.835-72.337-32.498-93.669-18.673-21.166-65.006-31.836-138.67-31.836-8.6742 0-17.505 0.16557-26.335 0.50592h-17.67c-43.665 0-79.163-4.8384-106.5-14.506-27.329-9.5021-49.828-28.166-67.168-55.835-17.496-27.826-26.492-72.494-27.163-134 20.163 37.999 46.333 66.331 78.5 85.169 32.002 18.829 70.332 28.166 114.5 28.166 68.161 0 125.83-26.501 173.16-79.668 47.17-53.002 70.838-114.5 70.838-184.34 0-72.834-24.836-135.33-74.499-187.66-49.838-52.174-114.67-78.335-194.83-78.335-55.173 0-103.5 13.163-145.34 39.664-41.669 26.335-71.5 62.504-89.502 108.33-17.827 45.836-26.832 121.67-26.832 227.67 0 124.66 22.996 214.16 68.833 268.66 45.836 54.501 125.84 81.665 240 81.665h69.504c19.335 0 32.167 6.6689 38.661 20.007zm-275.99-477.67c0-47.501 11.829-85.169 35.332-112.83 23.502-27.669 52.165-41.504 86.163-41.504 36.665 0 66.836 14.331 90.339 43.003 23.493 28.663 35.166 65.494 35.166 110.83 0 46.167-11.838 83.33-35.672 111.66-23.833 28.341-53.333 42.506-88.334 42.506-33.998 0-63.001-14-87-41.835-23.999-27.835-35.994-65.172-35.994-111.84z"/></glyph><glyph horiz-adv-x="667" unicode="Р"><path d="m73 0v716h231.83c87.837 0 145.01-3.5046 171.67-10.67 40.998-10.836 75.327-34.163 103-70.166s41.504-82.502 41.504-139.5c0-43.997-8.0027-80.828-23.833-110.83-16.005-29.996-36.169-53.499-60.664-70.663-24.505-16.999-49.506-28.332-74.839-33.832-34.494-6.8345-84.332-10.33-149.67-10.33h-94v-270h-145zm145 595v-204h78.841c56.828 0 94.662 3.8358 113.83 11.333 19.16 7.4968 34.163 19.17 44.999 35.332 10.836 15.996 16.337 34.504 16.337 55.835 0 26.17-7.6716 47.667-22.84 64.666-15.334 16.999-34.494 27.669-57.997 32.002-17.164 3.1643-51.668 4.8292-103.67 4.8292h-69.504z"/></glyph><glyph horiz-adv-x="718" unicode="Џ"><path d="m421 0v-197h-121v197h-225v716h145.01v-595.01h281v595.01h145.01v-716h-225z"/></glyph><glyph horiz-adv-x="610" unicode="ð"><path d="m162.5 716h143c18.498-14.34 36.334-28.837 53.168-43.509l88.334 43.509 21.828-47.17-70.332-32.839c62.504-62.992 107.34-126.16 134.67-189.66 27.172-63.498 40.832-123.33 40.832-179.83 0-84.167-25.002-151.83-75.161-202.84-50.169-51.162-114.83-76.661-194.34-76.661-76.329 0-139.5 25.333-189 76.164-49.663 50.666-74.499 116.33-74.499 197 0 79.172 26.335 144.33 79.006 195.17 43.831 42.497 93.328 63.663 148.33 63.663 17.505 0 35.341-2.6676 53.168-7.8372 12.998-3.8266 31.505-12.492 55.173-25.83-12.666 22.831-23.171 40.501-31.67 53.333-8.4994 12.832-21.662 30.502-39.664 53.002l-122-58.172-20.835 46.508 106.5 50.16c-32.664 30.006-68.005 58.503-106.5 85.841zm21.497-457.34c0-51.834 11.838-91.498 35.332-118.83 23.502-27.172 52.34-40.832 86.503-40.832 34.669 0 64.334 13.66 88.665 41.163 24.339 27.329 36.5 65.337 36.5 113.67 0 48.669-12.501 87-37.493 115-25.002 28.166-54.501 42.166-88.674 42.166-33.501 0-61.998-13.329-85.5-39.995-23.493-26.501-35.332-64.003-35.332-112.34z"/></glyph><glyph horiz-adv-x="610" unicode="ß"><path d="m67.996 0v465.5c0 65.162 5.8411 114.67 17.339 148.67 11.498 33.832 33.998 61.501 67.168 82.833 33.161 21.331 76.329 32.002 129.33 32.002 66.331 0 116-14.166 148.83-42.672 32.83-28.332 49.332-63.663 49.332-105.66 0-28.497-8.8306-58.999-26.666-91.332-17.661-32.498-27.835-52.33-30.502-59.505-2.4928-7.3312-3.8266-13.494-3.8266-18.664 0-10.836 4.0014-22.003 12.16-33.832 5.3352-7.4968 24.836-28.332 58.668-62.67 33.998-34.329 56.838-63.332 68.502-87.165 11.838-23.833 17.67-48.495 17.67-74.002 0-47.326-16.337-86.825-49.166-118.66-32.673-31.836-74.168-47.832-124.34-47.832-34.669 0-66.165 8.8306-94.496 26.501-28.341 17.661-49.672 39.498-64.003 65.494l95.996 56.001c6.8345-12.501 14.506-21.994 23.006-28.332 8.4994-6.5034 17.836-9.6677 28-9.6677 13.329 0 24.661 4.8384 33.998 14.497 9.3365 9.6677 14 21.672 14 36.003 0 13.503-4.8292 26.998-14.662 40.832-5.5007 8.1683-28.175 30.834-67.508 68.17-55.164 53.002-82.833 94.662-82.833 125 0 19.335 10.505 51.162 31.505 95.334 16.502 33.998 26.161 55.504 29.168 64.666 2.8332 9.1709 4.3325 18.664 4.3325 28.497 0 14.34-5.3352 26.666-16.005 36.84-10.827 10.164-25.167 15.159-42.994 15.159-16.171 0-30.337-4.1577-42.166-12.666-11.838-8.4994-19.841-19.492-24.008-32.83-5.8319-18.002-8.8306-54.832-8.8306-110.67v-465.83h-137z"/></glyph><glyph horiz-adv-x="277" unicode="Î"><path d="m67.996 0v716h145.01v-716h-145.01zm-82.998 781 102.5 144h126.33l101.18-144h-110l-56.497 73-52.505-73h-111z"/></glyph><glyph horiz-adv-x="834" unicode="½"><path d="m243 355h-92.997v251c-30.668-21.166-65.668-37.162-105-47.998v75.998c30.999 8.8306 59.165 22.831 84.332 42.332 17.67 13.669 30.502 29.831 38.34 48.669h75.327v-370zm1.4994-381h-77.663l424.16 751h77.672l-424.17-751zm564.5 83.008v-78.004h-296c3.4954 27.669 12.501 52.496 26.832 74.333 14.166 21.837 45.662 51.999 94.331 90.836 37.006 28.994 59.33 48.164 66.671 57.666 10.164 12.335 15.168 24.836 15.168 37.668 0 11.995-4.0014 21.662-12.004 28.828-8.1683 7.1657-20.338 10.67-36.831 10.67-16.005 0-28.166-4.0014-36.5-12.004-8.1683-7.828-13.007-22.5-14.672-43.997l-92.997 7.8372c4.8292 37.659 17.164 65.494 36.996 83.495 25.673 23.171 62.173 34.669 109.66 34.669 45.174 0 79.668-10.339 103.5-31.165 23.833-20.669 35.838-45.174 35.838-73.506 0-17.496-3.6702-34.163-11.001-49.828-7.3312-15.84-19.17-32.002-35.838-49.001-8.4994-8.3339-30.328-26.501-65.834-54.501-18.498-14.497-31.827-25.839-39.995-33.998h152.67z"/></glyph><glyph horiz-adv-x="583" unicode="¬"><path d="m416 183v215.01h-375.01v126h501v-341.01h-125.99z"/></glyph><glyph horiz-adv-x="556" unicode="y"><path d="m5.9974 519h146l124.5-368.16 121.5 368.16h142l-183-499.5-33.004-90.164c-12.17-30.171-23.668-53.168-34.669-69.173-10.827-15.831-23.493-28.828-37.668-38.661-14.166-9.9988-31.661-17.67-52.496-23.171-20.669-5.5007-44.162-8.3339-70.332-8.3339-26.335 0-52.33 2.8332-77.838 8.3339l-11.995 107.01c21.497-4.1669 40.998-6.3378 58.328-6.3378 32.002 0 55.67 9.3365 71.004 28.166 15.334 18.829 27.163 42.838 35.332 71.831l-197.67 520z"/></glyph><glyph horiz-adv-x="610" unicode="h"><path d="m207 716v-265.34c44.493 52.836 97.826 79.337 159.66 79.337 31.836 0 60.508-5.8319 86.006-17.505 25.498-11.829 44.668-26.666 57.666-44.999 12.998-18.167 21.828-38.33 26.501-60.499 4.8292-22.168 7.1657-56.497 7.1657-103v-304h-137v273.67c0 54.336-2.6676 88.83-7.828 103.5-5.3352 14.662-14.672 26.335-28 34.835-13.338 8.665-30.006 12.998-50.169 12.998-23.006 0-43.5-5.5007-61.667-16.668-18.167-11.001-31.33-27.669-39.664-50.003-8.4994-22.159-12.666-55.164-12.666-98.664v-259.66h-137v716h137z"/></glyph><glyph horiz-adv-x="943" unicode="W"><path d="m171.33 0-168.33 716h149l106.5-491.84 130.66 491.84h172.33l125-500.17 109 500.17h145.5l-172.5-716h-154.83l-141.17 535.34-142.16-535.34h-159.01z"/></glyph><glyph horiz-adv-x="610" unicode="F"><path d="m73 0v716h492v-121.01h-347v-170h300v-121h-300v-304h-145z"/></glyph><glyph horiz-adv-x="556" unicode="5"><path d="m43.997 183.83 137 14.166c4.0014-30.999 15.5-55.67 34.669-73.827 19.335-18.167 41.495-27.172 66.662-27.172 28.672 0 53.002 11.664 72.834 35.166 19.832 23.502 29.84 58.834 29.84 106 0 44.328-9.8424 77.498-29.674 99.666-19.666 22.168-45.33 33.17-77.001 33.17-39.498 0-74.996-17.339-106.33-52.008l-111.01 16.005 70.001 372h363v-128h-258.83l-21.672-121.84c30.502 15.168 61.832 22.831 93.834 22.831 61.005 0 112.66-22.168 155-66.662 42.497-44.337 63.663-102 63.663-173.01 0-59.165-17.164-111.83-51.337-158.33-46.664-63.332-111.33-94.993-194-94.993-66.165 0-120.17 17.827-161.83 53.333-41.835 35.663-66.671 83.33-74.839 143.5z"/></glyph><glyph horiz-adv-x="556" unicode="$"><path d="m238 107v204.17c-63.507 18.167-110 45.662-139.5 82.502-29.665 36.996-44.493 81.665-44.493 134.33 0 53.333 16.833 98.167 50.325 134.34 33.501 36.334 78.004 57.169 133.67 62.67v47.998h70.994v-47.998c51.999-6.163 93.338-23.833 124.17-53.002 30.668-29.168 50.334-68.161 58.834-117l-124-16.005c-7.6624 38.34-27.329 64.334-58.999 78.004v-190.5c78.5-21 132-48.495 160.34-81.996 28.497-33.667 42.663-76.835 42.663-129.51 0-58.834-17.836-108.33-53.664-148.67-35.838-40.326-85.5-65.328-149.34-75.327v-91.001h-70.994v89.998c-56.001 6.8345-101.51 27.494-136.67 62.329-35.166 34.835-57.5 84.167-67.333 147.67l127 14.994c5.1604-25.995 14.994-48.329 29.334-67.168 14.331-18.829 30.162-32.333 47.667-40.832zm0 512c-19.17-6.8345-34.172-17.992-45.34-33.667-11.167-15.665-16.668-32.83-16.668-51.659 0-17.174 5.004-33.17 15.168-48.007 10.174-14.662 25.839-26.666 46.839-35.663v169zm70.994-519.99c24.505 5.326 44.502 16.999 59.836 35 15.5 17.992 23.162 39.158 23.162 63.663 0 21.662-6.4942 40.501-19.492 56.166-12.841 15.831-34.007 27.835-63.507 36.334v-191.16z"/></glyph><glyph horiz-adv-x="548" unicode="≥"><path d="m29.003 165v138l343.5 135.67-343.5 133.33v137l491-212.34v-117.83l-491-213.83zm0-165v128h491v-128h-491z"/></glyph><glyph horiz-adv-x="513" unicode="₫"><path d="m319 617h-103v63.001h103v36.003h96.005v-36.003h37.999v-63.001h-37.999v-401h-89.005v53.664c-29.159-41.163-66.827-61.667-112.83-61.667-43.003 0-78.5 16.668-106.5 50.169-29.831 35.166-44.668 81.83-44.668 140 0 59.836 14.331 106.5 43.169 140 27.329 31.827 63.498 47.832 108.84 47.832 40.492 0 75.492-16.668 104.99-50.169v81.168zm-159-211.67c0-38.671 5.3352-66.671 15.996-83.835 15.168-25.002 36.674-37.502 64.5-37.502 23.006 0 41.504 9.5021 55.67 28.341 15.168 19.998 22.831 47.998 22.831 83.661 0 78.004-26.492 117-79.494 117-23.668 0-42.506-9.0054-56.672-26.832-15.159-19.501-22.831-46.333-22.831-80.837zm-101-312.34v64.003h401v-64.003h-401z"/></glyph><glyph horiz-adv-x="479" unicode="‴"><path d="m-33.004 462 2.0053 133.17 25.995 120.84h149.01l-26.004-120.84-50.997-133.17h-100.01zm185 0 2.0053 133.17 25.995 120.84h149.01l-26.004-120.84-50.997-133.17h-100.01zm185 0 2.0053 133.17 25.995 120.84h149l-25.995-120.84-50.997-133.17h-100.01z"/></glyph><glyph horiz-adv-x="556" unicode="‒"><path d="m-1.9961 208v103h556v-103h-556z"/></glyph><glyph horiz-adv-x="566" unicode="Ӻ"><path d="m565 595h-340v-191h165v-91.001h-165v-192h42v-148.67c0-63.498-8.3339-108-24.992-133.5-21.506-32.498-56.672-48.835-105.67-48.835-23.833 0-46.664 3.1735-68.998 9.3365l16.668 74.499c17.661-4.4981 31.496-6.8345 41.669-6.8345 25.167 0 41.329 12.666 48.495 37.999 3.1643 11.333 4.8384 34.338 4.8384 68.667v26.335h-99.004v313h-71.997v91.001h71.997v312h485v-121.01z"/></glyph><glyph horiz-adv-x="610" unicode="ө"><path d="m575 260c0-78.326-25.002-143.33-75.17-195.16-50.16-51.834-114-77.829-191.83-77.829-48.835 0-93.834 10.661-135.17 31.827-43.997 22.84-77.166 54.842-99.335 96.171-22.334 41.163-33.492 91.498-33.492 150.84 0 47.326 11.158 91.663 33.667 132.99 23.493 42.838 55.495 75.336 96.493 97.67 40.832 22.334 86.337 33.501 136.84 33.501 78.831 0 143.17-25.333 192.99-75.833 50.003-50.5 75.005-115.33 75.005-194.17zm-145 43.003c-5.8411 33.667-19.004 60.83-39.508 81.665-22.325 22.168-50.16 33.336-83.164 33.336-35.828 0-65.834-13.669-90.164-41.163-16.999-18.839-28-43.5-33.17-73.837h246.01zm0.49672-84.001h-247c5.1696-35 18.167-63.166 39.002-84.663 22.334-23.502 50.666-35.332 84.829-35.332 33.998 0 62.338 11.829 84.663 35.332 20.504 21.497 33.336 49.663 38.505 84.663z"/></glyph><glyph horiz-adv-x="726" unicode="Ә"><path d="m686 354c0-150.33-50.997-257.66-153-322-47.501-30.006-104.84-44.999-172-44.999-75.161 0-136.66 19.666-184.66 58.834-88.839 73.165-133.33 176.16-133.33 309 0 14.662 1.8305 35.663 5.326 63.166h484.67c-5.8319 54.005-22.665 97.504-50.334 130.33-31.165 37.162-72.668 55.67-124.34 55.67-78.491 0-129.5-39.333-153.33-118l-143 32.664c16.005 69.495 51.171 122.5 105.5 159 50.84 34.172 113 51.337 186.5 51.337 106.67 0 189.84-36.334 249.5-109.17 55.007-67.499 82.502-156.16 82.502-265.84zm-153-56.994h-337c8.1683-63.672 27.329-110.5 57.666-140.67 30.162-30.162 66-45.33 107.33-45.33 46.002 0 84.001 14.672 113.84 44.006 29.996 29.5 49.332 76.826 58.162 142z"/></glyph><glyph horiz-adv-x="722" unicode="Ӈ"><path d="m645 171.17c0-115.84-18.664-204-56.166-264.5-48.173-77.829-130-116.66-245.5-116.66-141.17 0-231.33 49.332-270.34 148.17l145 22.831c3.8358-13.494 15.334-26.161 34.504-37.668 23.668-14.166 51.668-21.331 84.167-21.331 108.84 0 163.33 78.335 163.33 235v176h-282v-313h-145v716h145v-282.01h282v282.01h145.01v-544.84z"/></glyph><glyph horiz-adv-x="702" unicode="Ҷ"><path d="m687-156h-121v156h-84.001v288.5c-59.34-26.335-115.84-39.498-170.01-39.498-167.33 0-251 75.161-251 225.49v241.51h145.01v-170.84c0-49.506 0.66229-78.169 1.9961-86.337 4.5073-32.664 18.002-56.166 40.501-70.829 19.998-13.338 49.672-20.007 88.665-20.007 61.17 0 109.33 13.172 144.84 39.508v308.5h145v-595.01h60.002v-277z"/></glyph><glyph horiz-adv-x="713" unicode="ҥ"><path d="m704 408h-166v-408h-137v218h-198v-218h-137v519h137v-190h198v190h303v-111z"/></glyph><glyph horiz-adv-x="702" unicode="Ҕ"><path d="m642 170.5c0-115.84-18.673-203.84-56.166-264.01-48.338-77.663-130.17-116.5-245.84-116.5-136.83 0-224.83 49.332-264 148.17l145.01 22.831c4.1669-13.835 14.662-26.501 31.165-37.668 21.828-14.166 48.835-21.331 81.002-21.331 109.16 0 163.83 78.335 163.83 235 0 140.66-45.33 211-136 211-47.161 0-93.834-13.163-139.99-39.498v-308.5h-145.01v716h485v-121.01h-340v-167.5c53.664 26.335 108.66 39.498 164.99 39.498 77.498 0 139.67-26.666 186.17-80.165 46.499-53.499 69.835-125.67 69.835-216.33z"/></glyph><glyph horiz-adv-x="0" unicode="҃"><path d="m170 679.5c0-14.994-5.3352-27.66-16.162-38.496-10.67-10.67-23.668-15.996-38.671-15.996h-175.66c0.33115-2.3364 0.49672-5.1696 0.49672-8.6742 0-14.828-5.3352-27.66-15.996-38.33-10.836-10.661-23.502-15.996-38.505-15.996-14.994 0-27.66 5.3352-38.496 15.996-10.67 10.836-15.996 23.502-15.996 38.505 0 14.994 5.326 27.66 16.162 38.496 10.67 10.67 23.668 15.996 38.671 15.996h175.66c-0.33115 2.3364-0.50592 5.1696-0.50592 8.6742 0 14.994 5.3352 27.66 16.005 38.33 10.836 10.67 23.502 15.996 38.496 15.996 15.003 0 27.669-5.326 38.505-15.996 10.661-10.836 15.996-23.502 15.996-38.505z"/></glyph><glyph horiz-adv-x="777" unicode="Ѳ"><path d="m736 357c0-108.34-28.506-195.84-85.335-262.84-60.83-71.5-144.33-107.16-250.5-107.16-150 0-254.5 56.166-313.83 168.33-29.5 56.166-44.337 122.17-44.337 198.33 0 114.17 28.837 204.34 86.337 270.67 60.83 69.835 147.5 104.67 259.66 104.67 110.67 0 196.83-34.669 258.66-104.16 59.496-66.34 89.336-155.5 89.336-267.83zm-153 61.492c-16.171 124.34-80.837 186.5-193.5 186.5-56.166 0-101.34-17.496-135.5-52.33-31.836-32.333-51.503-77.001-58.999-134.17 24.67-16.327 48.669-24.496 71.666-24.496 32.498 0 71.997 8.1683 118.5 24.496 46.333 16.337 80 24.505 100.83 24.505 27.991 0 60.333-8.1683 96.998-24.505zm0-121c-35.341 16.337-67.674 24.505-96.998 24.505-20.835 0-54.501-8.1683-100.83-24.505-46.508-16.337-86.006-24.496-118.5-24.496-22.996 0-46.995 7.9935-71.666 23.999 7.4968-53.499 25.333-95.002 53.664-125 38.34-40.667 85.335-61.005 140.84-61.005 55.164 0 101.83 20.172 139.83 60.499 28.341 30.006 46.167 72.006 53.673 126z"/></glyph><glyph horiz-adv-x="778" unicode="ѡ"><path d="m778 519-205.84-519h-123.5l-68.833 158.33-66.671-158.33h-123.5l-137.66 315.17c-28 64.16-42 132.16-42 203.83h144c0-82.17 9.8332-146.5 29.334-193l67.333-160.33 56.828 157.33c-25.664 62.338-38.496 127.67-38.496 196h143.99c0-82.17 9.8332-146.5 29.334-193l67.333-160.33 127.34 353.33h141z"/></glyph><glyph horiz-adv-x="556" unicode="ѐ"><path d="m372 164 137-22.996c-17.505-50.169-45.33-88.334-83.164-114.67-37.999-26.17-85.5-39.333-142.34-39.333-90.164 0-157 29.5-200.17 88.499-34.163 47.336-51.328 107-51.328 179.17 0 85.997 22.5 153.5 67.333 202.16 44.834 48.835 101.66 73.165 170.33 73.165 77.001 0 137.84-25.498 182.5-76.504 44.502-50.997 65.834-129.17 63.838-234.5h-343c1.0026-40.667 12.004-72.328 33.17-95.002 21-22.665 47.336-33.998 78.666-33.998 21.497 0 39.498 5.8319 54.005 17.505 14.662 11.664 25.664 30.493 33.161 56.497zm8.0027 139c-1.0026 39.83-11.167 70.166-30.668 90.836-19.501 20.835-43.169 31.165-71.169 31.165-29.831 0-54.501-11.001-73.993-32.83-19.501-21.837-29.003-51.668-28.672-89.171h204.5zm-36.996 283h-86.006l-135 146h153l68.005-146z"/></glyph><glyph horiz-adv-x="604" unicode="п"><path d="m66 519h461v-519h-137v408h-187v-408h-137v519z"/></glyph><glyph horiz-adv-x="1031" unicode="Ю"><path d="m73 716h145v-299.01h116c8.4994 88.499 39.498 162.67 93.172 222.34 53.664 59.836 131.83 89.667 234.33 89.667 98.498 0 176.83-32.002 235.16-96.005 58.172-63.829 87.34-155.16 87.34-274 0-77.663-12.666-144-38.008-199-25.498-54.998-61.327-97.495-107.66-127.67-46.333-30.162-104-45.33-173.01-45.33-70.332 0-126.17 11.001-167.66 33.161-41.504 22.168-77.672 58.006-108.84 107.5-30.999 49.332-49.332 105.5-54.832 168.33h-116v-296h-145v716zm406-358.5c0-79.834 15.665-141.34 47.161-184.5 31.505-43.334 75.667-64.997 132.84-64.997 58.668 0 102.66 21.497 132 64.5 29.334 43.003 43.997 107.34 43.997 193.34 0 82.336-16.999 142.67-50.831 180.83-33.832 38.165-77.166 57.334-130.17 57.334-51.493 0-93.494-19.335-126.17-58.006-32.498-38.827-48.826-101.66-48.826-188.5z"/></glyph><glyph horiz-adv-x="722" unicode="Н"><path d="m73 0v716h145v-282.01h282v282.01h145.01v-716h-145.01v313h-282v-313h-145z"/></glyph><glyph horiz-adv-x="610" unicode="Ќ"><path d="m74.996 716h145.01v-305c32.167 3.3299 53.995 11.498 65.328 25.002 11.342 13.329 29.003 50.5 52.671 111.5 29.831 77.507 60.002 125.84 90.164 144.68 30.006 18.829 78.169 28.332 144.84 28.332 3.3299 0 10.33 0.16557 21 0.49672v-107l-20.504 0.49672c-29.665 0-51.337-3.661-64.997-11.001-13.669-7.3312-24.67-18.498-33.17-33.501-8.4994-14.994-21-45.827-37.502-92.5-8.8306-24.827-18.333-45.496-28.663-62.164-10.174-16.668-28.332-32.333-54.336-46.995 32.167-9.0054 58.668-27.504 79.668-55.173 21-27.66 43.997-66.662 68.998-117.16l97.504-196h-170.01l-85.832 184.33c-1.3338 2.6676-4.1669 7.6716-8.3339 15.168-1.6649 2.502-7.6624 13.835-18.002 33.667-18.333 35.332-33.326 57.334-44.999 66.165-11.829 8.8398-29.665 13.338-53.83 13.669v-313h-145.01v716zm154 64.997 68.005 146h153l-135-146h-86.006z"/></glyph><glyph horiz-adv-x="610" unicode="þ"><path d="m67.996 716h137v-258.34c26.998 27.007 51.834 45.836 74.499 56.507 22.665 10.496 48.669 15.831 78.004 15.831 60.333 0 111.5-23.668 153.5-71.004 42-47.161 63.001-113.16 63.001-197.5 0-86.825-21.166-154.16-63.498-202.33-42.332-48.164-93.669-72.162-154-72.162-28.663 0-54.667 5.6663-77.994 17.164-23.171 11.333-47.842 30.834-73.506 58.503v-259.66h-137v913zm135.01-446.51c0-53.83 8.4994-93.834 25.498-119.5 23.833-36.665 55.329-54.998 94.837-54.998 30.328 0 56.166 12.998 77.663 39.002 21.331 25.995 32.002 66.993 32.002 122.83 0 59.505-10.836 102.33-32.333 128.67-21.506 26.335-49.001 39.498-82.667 39.498-33.004 0-60.333-12.832-82.17-38.496-21.828-25.673-32.83-64.675-32.83-117z"/></glyph><glyph horiz-adv-x="277" unicode="í"><path d="m71.997 0v519h137v-519h-137zm-22.996 586 67.996 146h153.01l-135.01-146h-85.997z"/></glyph><glyph horiz-adv-x="722" unicode="Ü"><path d="m73 716h145v-388c0-61.667 1.8397-101.51 5.3352-119.66 6.1722-29.334 20.669-53.002 43.665-70.672 23.171-17.836 54.667-26.666 94.671-26.666 40.501 0 71.169 8.3339 91.829 25.167 20.669 16.833 33.004 37.337 37.171 61.832 4.1669 24.505 6.3286 65.006 6.3286 121.67v396.34h145.01v-376.5c0-85.997-3.8358-146.84-11.673-182.33-7.828-35.497-22.159-65.503-43.16-89.998-20.835-24.505-48.835-43.831-83.835-58.337-35.166-14.497-80.837-21.828-137.33-21.828-68.17 0-119.83 7.828-155 23.668-35.166 15.831-62.992 36.334-83.495 61.667-20.504 25.333-33.832 51.659-40.336 79.494-9.5021 40.998-14.166 101.67-14.166 181.84v382.34zm126.5 64.997v118h118v-118h-118zm210.5 0v118h118v-118h-118z"/></glyph><glyph horiz-adv-x="667" unicode="Ë"><path d="m73 0v716h530v-121.01h-385v-159h358.01v-121h-358.01v-194.01h399v-121h-544zm115.5 781v118h118.01v-118h-118.01zm210.5 0v118h118.01v-118h-118.01z"/></glyph><glyph horiz-adv-x="365" unicode="º"><path d="m12.998 545.34c0 57.831 15.334 103 46.002 135.33 30.668 32.167 71.666 48.338 123 48.338 50.997 0 91.829-16.171 122.66-48.669 30.834-32.333 46.333-77.332 46.333-135 0-57.666-15.334-102.66-46.002-135-30.659-32.167-71.666-48.338-122.99-48.338-51.337 0-92.335 16.005-123 48.164-30.668 32.002-46.002 77.166-46.002 135.17zm103-0.83707c0-35.994 5.9974-61.501 18.002-76.661 11.995-15.168 27.66-22.84 46.83-22.84 18.995 0 34.669 7.6716 46.83 22.84 12.17 15.159 18.333 40.667 18.333 76.661 0 36.003-6.163 61.501-18.333 76.67-12.16 15.168-27.835 22.831-46.83 22.831-19.17 0-34.835-7.4968-46.83-22.5-12.004-15.003-18.002-40.667-18.002-77.001z"/></glyph><glyph horiz-adv-x="736" unicode="©"><path d="m370 730c64.169 0 125.66-16.162 184.5-48.329 58.999-32.167 105.33-78.169 139-138 33.667-59.671 50.5-122.17 50.5-187.67 0-65.172-16.493-127.17-49.497-186.34-33.161-58.999-79.163-105-138.16-138.17-59.174-32.995-121.17-49.497-186.34-49.497-65.172 0-127.17 16.502-186.34 49.497-58.999 33.17-105 79.172-138.17 138.17-32.995 59.165-49.497 121.16-49.497 186.34 0 65.503 16.833 128 50.5 187.67 33.667 59.827 80 105.83 139 138 58.834 32.167 120.34 48.329 184.5 48.329zm0-73.993c-51.337 0-100.67-12.832-148-38.505-47.326-25.664-84.498-62.495-111.5-110.5-26.998-47.998-40.501-98.332-40.501-150.99 0-51.999 13.329-101.84 39.83-149.34 26.501-47.326 63.507-84.332 110.83-110.83 47.501-26.501 97.339-39.83 149.34-39.83 51.999 0 101.83 13.329 149.33 39.83 47.336 26.501 84.332 63.507 110.83 110.83 26.501 47.501 39.839 97.339 39.839 149.34 0 52.33-13.503 102.66-40.501 150.66-26.998 48.173-64.169 85.169-111.5 110.83-47.326 25.673-96.667 38.505-148 38.505zm89.998-356 78.997-26.004c-12.326-41.329-32.83-73-61.327-94.993-28.506-22.003-62.67-33.004-102.17-33.004-55.67 0-100.83 18.333-136 54.832-35 36.5-52.505 87-52.505 151.17 0 42.166 7.8372 79.668 23.337 112.66 15.665 33.004 38.165 57.5 67.499 73.837s62.164 24.496 98.498 24.496c40.004 0 73.34-9.4929 100.17-28.663 26.666-19.004 47.501-49.166 62.495-90.33l-78.997-19.004c-8.9962 23.833-20.835 41.163-35.166 51.834-14.497 10.836-31.505 16.171-51.337 16.171-29.5 0-53.499-11.167-72.328-33.501-18.839-22.334-28.166-57.169-28.166-104.67 0-47.667 9.1617-82.667 27.66-105.17 18.333-22.5 40.501-33.667 66.34-33.667 21.662 0 40.326 6.5034 56.166 19.335 15.831 12.998 28.166 34.494 36.831 64.666z"/></glyph><glyph horiz-adv-x="556" unicode="v"><path d="m214.67 0-209.16 519h144l97.661-264.84 28.332-88.499c7.506 22.5 12.335 37.337 14.175 44.502 4.6637 14.662 9.4929 29.334 14.828 43.997l99.004 264.84h141l-206.17-519h-123.66z"/></glyph><glyph horiz-adv-x="556" unicode="e"><path d="m372 164 137-22.996c-17.505-50.169-45.33-88.334-83.164-114.67-37.999-26.17-85.5-39.333-142.34-39.333-90.164 0-157 29.5-200.17 88.499-34.163 47.336-51.328 107-51.328 179.17 0 85.997 22.5 153.5 67.333 202.16 44.834 48.835 101.66 73.165 170.33 73.165 77.001 0 137.84-25.498 182.5-76.504 44.502-50.997 65.834-129.17 63.838-234.5h-343c1.0026-40.667 12.004-72.328 33.17-95.002 21-22.665 47.336-33.998 78.666-33.998 21.497 0 39.498 5.8319 54.005 17.505 14.662 11.664 25.664 30.493 33.161 56.497zm8.0027 139c-1.0026 39.83-11.167 70.166-30.668 90.836-19.501 20.835-43.169 31.165-71.169 31.165-29.831 0-54.501-11.001-73.993-32.83-19.501-21.837-29.003-51.668-28.672-89.171h204.5z"/></glyph><glyph horiz-adv-x="610" unicode="T"><path d="m234 0v595h-212v121.01h568v-121.01h-211v-595h-145z"/></glyph><glyph horiz-adv-x="722" unicode="C"><path d="m531 264 139.99-42.994c-21.497-78.841-57.325-137.33-107.33-175.67-50.003-38.165-113.34-57.334-190.17-57.334-95.168 0-173.33 32.508-234.66 97.504-61.17 64.997-91.829 153.84-91.829 266.66 0 119.17 30.824 211.83 92.326 277.83 61.501 66 142.5 99.004 242.83 99.004 87.671 0 158.84-26.004 213.51-77.838 32.664-30.668 56.994-74.664 73.331-132.16l-143-33.998c-8.4994 36.996-26.17 66.331-53.002 87.828-26.998 21.506-59.662 32.167-98.001 32.167-53.168 0-96.327-18.995-129.33-57.16-33.161-37.999-49.663-99.666-49.663-185 0-90.339 16.327-154.84 48.835-193.17 32.664-38.496 74.996-57.666 127.16-57.666 38.505 0 71.666 12.17 99.335 36.665 27.669 24.496 47.667 62.835 59.671 115.33z"/></glyph><glyph horiz-adv-x="556" unicode="2"><path d="m506 127v-127h-481c5.1696 48.329 20.835 94 46.83 137.17 26.004 43.169 77.498 100.49 154.17 171.99 61.832 57.675 99.666 96.833 113.67 117.34 18.839 28.332 28.332 56.332 28.332 84.167 0 30.668-8.1591 54.17-24.661 70.663-16.337 16.502-39.002 24.67-67.839 24.67-28.663 0-51.328-8.665-68.327-25.995-16.833-17.174-26.501-45.836-29.168-86.006l-137 13.669c8.1683 75.667 33.667 130 76.67 163 43.003 32.839 96.667 49.332 161.17 49.332 70.663 0 126.17-19.16 166.67-57.334 40.326-38.165 60.499-85.666 60.499-142.49 0-32.333-5.8319-63.001-17.339-92.335-11.498-29.168-29.831-59.662-54.998-91.663-16.502-21.341-46.664-51.834-89.998-91.673-43.5-39.83-71.004-66.165-82.502-79.328-11.664-13.007-21-25.839-28.166-38.165h273z"/></glyph><glyph horiz-adv-x="332" unicode="!"><path d="m125 184-35.497 363.84v168.17h148v-168.17l-35-363.84h-77.498zm-29.5-184v137h137v-137h-137z"/></glyph><glyph horiz-adv-x="712" unicode="∞"><path d="m331.84 411.33c23.999 39.498 48.66 68.005 73.662 85.5 25.002 17.505 53.002 26.17 83.835 26.17 42.828 0 78.5-15.168 107-45.671 28.506-30.493 42.672-71.997 42.672-124.83 0-52.827-14.166-94.331-42.672-124.83-28.497-30.493-64.169-45.662-107-45.662-30.502 0-58.337 8.665-83.339 25.83-25.158 17.164-49.828 45.505-74.159 85.004-19.501-27.338-42-48.173-67.333-62.338-25.333-14.331-49.506-21.497-72.503-21.497-32.839 0-60.664 12.832-83.67 38.33-22.831 25.673-34.329 60.674-34.329 105 0 44.171 11.498 79.172 34.329 104.5 23.006 25.498 50.831 38.165 83.67 38.165 22.996 0 47.17-7.1657 72.503-21.497 25.333-14.34 47.832-35.166 67.333-62.173zm45.33-58.328c27.329-42 46.499-67.674 57.666-77.001 17.164-14.672 35.838-22.003 56.001-22.003 24.836 0 43.831 9.6677 57.169 28.837 13.329 19.16 19.998 42.994 19.998 71.335 0 30.659-7.3312 54.492-22.003 71.325-14.662 17.008-32.498 25.508-53.664 25.508-16.502 0-33.17-5.8411-50.003-17.67-16.668-11.664-38.496-38.496-65.162-80.331zm-87.331 0.99344c-32.508 46.002-63.341 69.007-92.666 69.007-15.003 0-28-6.0066-38.836-18.167-10.836-12.004-16.337-28.837-16.337-50.334 0-22.168 5.3352-39.498 16.171-51.834 10.661-12.501 23.668-18.673 39.002-18.673 12.666 0 23.999 3.5046 34.163 10.339 17.496 11.664 36.996 31.661 58.503 59.662z"/></glyph><glyph horiz-adv-x="1225" unicode="₨"><path d="m1177 161c0-58.999-25.664-104.16-77.166-135.34-42.828-25.83-95.665-38.661-158.5-38.661-138.16 0-221 53.333-248.33 160l138.01 21c11.995-54.667 48.826-82.005 110.33-82.005 65.172 0 97.67 18.839 97.67 56.332 0 21.175-18.498 35.838-55.504 44.006-111.16 24.836-181.16 47.161-210.17 67.002-40.832 28.166-61.327 67.168-61.327 117 0 56.166 23.493 98.167 70.663 125.84 38.33 22.5 87.496 33.832 147.17 33.832 60.83 0 108.5-8.665 142.84-25.839 42.663-21.828 71.335-58.825 86.328-111.33l-129-23.833c-11.333 41.338-43.997 61.998-97.661 61.998-62.173 0-93.338-14.331-93.338-42.994 0-9.8332 4.4981-18.167 13.669-25.002 14-10.505 57.831-23.833 131.34-40.17 71.997-16.327 122.17-36.334 150.5-60.168 28.332-23.668 42.497-57.666 42.497-101.66zm-460-161h-173l-104.5 155.83c-31.827 47.501-49.001 73-51.162 76.164-24.836 32.333-47.501 51.999-68.336 59.174-15.003 5.1604-39.167 7.828-72.668 7.828h-29.334v-299h-145v716h304.5c63.838 0 110.34-3.5046 139.34-10.67 49.166-12.501 86.163-38.165 110.83-77.166 20.826-33.004 31.33-70.498 31.33-112.84 0-114.66-63.001-181-189-199.17 36.003-21.166 66.671-46.83 91.663-76.826 14.672-17.505 37.337-50.666 68.005-99.666l87.331-139.67zm-207 506c0 49.828-24.505 78.666-73.671 86.494-10.496 1.6741-45.662 2.502-105.5 2.502h-112.84v-182h107.01c53.002 0 83.495 0.50592 91.332 1.5086 38.661 4.1669 64.997 16.833 78.997 37.659 9.8332 14.34 14.672 32.333 14.672 53.839z"/></glyph><glyph horiz-adv-x="556" unicode="†"><path d="m211-171v577h-177.99v113h177.99v188h128.01v-188h177v-113h-177v-577h-128.01z"/></glyph><glyph horiz-adv-x="0" unicode="‏"><path d="m16.999-134h-35v702h-129.5l66.496-63.663-23.502-23.337-106.49 104.33 106.49 104.67 23.337-23.171-66.331-63.829h164.5v-737z"/></glyph><glyph horiz-adv-x="416" unicode="ӷ"><path d="m417 408h-214v-297h53.995v-248h-111v137h-80v519h351v-111z"/></glyph><glyph horiz-adv-x="777" unicode="Ӧ"><path d="m43.003 353.66c0 73 11.001 134.34 32.83 184 16.171 36.5 38.505 69.338 66.671 98.332 28.166 29.003 58.999 50.5 92.5 64.675 44.659 18.829 96.162 28.332 154.5 28.332 105.66 0 190-32.839 253.49-98.332 63.341-65.668 95.002-156.84 95.002-273.67 0-115.84-31.496-206.51-94.331-271.84-62.835-65.503-147-98.167-252.17-98.167-106.5 0-191.33 32.498-254.16 97.661-62.835 65.006-94.331 154.67-94.331 269zm149 4.8384c0-81.168 18.829-142.67 56.332-184.67 37.502-41.835 85.169-62.835 142.84-62.835 57.831 0 105.17 20.835 142.33 62.338 37.006 41.66 55.504 104 55.504 187.16 0 82.17-18.002 143.5-54.17 183.83-35.994 40.501-83.826 60.664-143.66 60.664-59.671 0-107.83-20.494-144.33-61.327-36.5-41.007-54.832-102.67-54.832-185.17zm34.494 422.5v118h118.01v-118h-118.01zm210.51 0v118h118v-118h-118z"/></glyph><glyph horiz-adv-x="889" unicode="ӕ"><path d="m701 164 134-23.999c-18.498-51.006-46.664-89.171-84.498-114.67-37.668-25.498-85.832-38.33-144.33-38.33-36.5 0-70.166 5.9974-101 17.827-30.999 12.004-58.999 30.006-84.001 53.839-23.162-19.998-52.993-36.831-89.502-50.831-36.665-13.835-74.333-20.835-113-20.835-55.338 0-98.332 14.497-129.33 43.334-30.834 28.828-46.333 65.162-46.333 109.16 0 26.335 5.5007 49.838 16.327 70.341 11.001 20.66 24.174 36.665 39.673 48.164 15.5 11.664 37.162 21.662 64.831 30.162 12.998 4.1669 51.834 13.007 116.5 26.335 32.333 6.8345 59.836 14 82.667 21.506v13.825c0 25.167-6.8345 44.006-20.669 56.507-13.669 12.501-35.332 18.664-65.162 18.664-26.17 0-47.004-5.3352-62.338-16.171-15.334-10.661-26.335-27.329-32.83-49.828l-124 23.999c16.337 50.5 41.835 87.671 76.835 111.33 34.835 23.833 88.168 35.672 159.67 35.672 33.832 0 64.003-4.0014 90.504-12.004 26.492-7.9935 49.166-19.832 67.996-35.828 19.832 15.996 41.504 27.835 64.997 35.828 23.668 8.0027 48.835 12.004 75.833 12.004 51.999 0 96.005-11.001 131.83-33.004 36.003-21.994 64.169-54.492 84.838-97.33s30.834-103.5 30.502-181.67h-344.01c5.5007-44.328 17.836-76.329 37.171-96.162 19.17-19.832 42.663-29.831 70.663-29.831 23.171 0 42.838 5.8319 58.999 17.661 16.337 11.673 28.672 29.831 37.171 54.336zm4.9948 140c-1.9961 28.663-5.8319 49.497-11.664 62.164-8.1683 18.333-20.329 32.664-36.831 43.169-16.337 10.496-35.672 15.665-57.666 15.665-19.17 0-36.003-4.4981-50.5-13.503-14.506-8.9962-25.839-22.5-34.338-40.326-11.333-23.833-16.502-46.333-15.5-67.168h206.5zm-345-57.003c-75.161-19.832-115.99-30.834-122.5-33.17-21.662-7.1657-36.996-15.831-45.496-25.83-8.6742-10.164-13.007-22.003-13.007-35.663 0-18.839 7.0001-35 21.166-48.338 14.175-13.329 32.673-19.998 55.504-19.998 23.999 0 46.664 7.6624 67.664 22.996 15.665 11.333 25.673 25.498 30.006 42.672 4.4981 16.999 6.6597 49.497 6.6597 97.33z"/></glyph><glyph horiz-adv-x="597" unicode="ӄ"><path d="m577 58.999c0-78.169-21.828-141.83-65.494-190.83-46.167-52.165-109-78.169-188.51-78.169-65.162 0-115.99 8.665-152.49 25.839-45.836 21.662-80.671 60.83-104.5 117.33l137 22.84c12.666-36.003 50.666-54.005 113.83-54.005 79.503 0 119.17 52.505 119.17 157.33 0 45.505-9.3365 82.502-27.835 110.83-23.162 34.504-58.503 51.834-106 51.834h-99.16v-222h-137v519h137v-212c25.002 2.9987 43.665 13.669 56.001 32.167 5.9974 8.4994 14.662 29.665 26.326 63.332 15.003 43.003 30.834 72.503 47.336 88.83 20.835 20.504 51.503 30.668 92.169 30.668 10.496 0 28.497-0.82787 54.17-2.502l0.49672-90.495c-36.003 0-59.165-3.6702-69.338-11.167-10.33-7.4968-21-28.497-32.498-63.001-5.8319-17.67-13.835-34.163-24.33-49.838 74.333-6.8253 130.5-32.158 169-76.164 36.5-42 54.667-98.664 54.667-169.83z"/></glyph><glyph horiz-adv-x="556" unicode="ҳ"><path d="m547-137h-111v137h-57.666l-105.67 150.5-105.5-150.5h-161.17l186 265.33-178 253.67h168.17l94.331-133.17 93.338 133.17h161.17l-173.5-247.5 113.5-160.5h75.998v-248z"/></glyph><glyph horiz-adv-x="722" unicode="Ң"><path d="m705-156h-120v156h-84.001v313h-283v-313h-145v716h145v-282.01h283v282.01h145.01v-595.01h58.999v-277z"/></glyph><glyph horiz-adv-x="446" unicode="ґ"><path d="m306 519v136h110v-247h-213v-408h-137v519h240z"/></glyph><glyph horiz-adv-x="722" unicode="Ҁ"><path d="m669 519.16-143-34.163c-8.4994 37.328-26.17 66.662-53.002 88.002-26.998 21.331-59.662 31.992-98.001 31.992-119.33 0-178.99-80.828-178.99-242.67 0-167.5 58.668-251.33 175.83-251.33 27.669 0 52.671 6.3378 75.17 19.004v-327h-145.01v191c-59.827 8.8306-114.33 39.333-163.33 91.498-61.17 65.162-91.663 154-91.663 266.5 0 111.16 27.66 200.5 82.998 268 59.662 72.668 143.66 109 252.16 109 87.671 0 158.84-26.004 213.51-77.838 32.664-30.834 56.994-74.83 73.331-132z"/></glyph><glyph horiz-adv-x="496" unicode="ѯ"><path d="m492-197h-118c0 23.328-10.505 34.991-31.67 34.991-1.0026 0-19.501-7.9935-55.835-23.999-36.169-15.996-66.331-23.999-90.33-23.999-50.334 0-89.833 13.338-118.34 40.004-29.831 27.494-44.824 66.165-44.824 115.83 0 98.838 67.996 148.17 204.16 148.17 56.497 0 84.838 18.002 84.838 53.83 0 43.5-29.168 65.172-87.506 65.172h-23.502v88.996c64.675 0 97.008 22.665 97.008 68.005 0 20.494-6.6689 36.665-20.007 48.329-13.329 11.838-30.328 17.67-51.162 17.67-40.667 0-70.001-22.334-87.837-67.002l-115.99 24.836c11.664 45.496 37.659 80 77.663 104 15.334 9.1617 32.498 16.337 51.834 21.837l-80.506 174.33h85.004l72.503-164 56.497 112.66c19.17 38.165 47.998 57.334 86.503 57.334 33.998 0 58.834-13.503 74.499-40.336l-44.006-41.66c-5.1604 11.333-12.16 16.999-20.826 16.999-10.67 0-19.666-7.506-27.172-22.5l-46.333-92.832c19.998-5.8411 38.34-13.835 54.501-24.339 41.835-26.998 62.835-65.668 62.835-116.17 0-47.998-30.834-87-92.5-116.5 76.329-20.835 114.5-63.001 114.5-126.5 0-90.836-74.674-136.17-224.17-136.17-16.502 0-30.668-4.4981-42.332-13.669-11.673-9.1617-17.505-21.828-17.505-38.165 0-33.998 15.003-51.162 45.165-51.162 14 0 37.834 7.6624 71.5 22.996 33.667 15.334 60.839 22.996 81.168 22.996 80.165 0 120.17-46.664 120.17-139.99z"/></glyph><glyph horiz-adv-x="556" unicode="ў"><path d="m5.9974 519h146l124.5-368.16 121.5 368.16h142l-183-499.5-33.004-90.164c-12.17-30.171-23.668-53.168-34.669-69.173-10.827-15.831-23.493-28.828-37.668-38.661-14.166-9.9988-31.661-17.67-52.496-23.171-20.669-5.5007-44.162-8.3339-70.332-8.3339-26.335 0-52.33 2.8332-77.838 8.3339l-11.995 107.01c21.497-4.1669 40.998-6.3378 58.328-6.3378 32.002 0 55.67 9.3365 71.004 28.166 15.334 18.829 27.163 42.838 35.332 71.831l-197.67 520zm357 209h67.002c-3.8358-44.162-19.501-78.997-46.673-104.16-27.163-25.167-62.329-37.834-105.5-37.834-43.334 0-78.5 12.666-105.66 37.834-27.172 25.167-42.838 60.002-46.673 104.16h67.002c2.3364-22.996 10.339-40.501 24.339-52.33 14-11.838 34.329-17.67 60.996-17.67 26.501 0 46.83 5.8319 60.83 17.67 14 11.829 22.003 29.334 24.339 52.33z"/></glyph><glyph horiz-adv-x="552" unicode="э"><path d="m223 303h146c-2.8332 40.501-13.163 70.838-30.668 90.836-17.496 20.163-42.166 30.162-73.827 30.162-20.172 0-39.167-5.1604-57.169-15.665-18.002-10.496-29.5-26.335-34.338-47.336l-134 25.002c32.83 96.005 106.83 144 222.16 144 82.667 0 145.01-24.33 187.34-73.165 42.332-48.669 63.498-114.34 63.498-196.84 0-87.496-21.497-154.83-64.5-202-43.003-47.326-104.84-70.994-185.5-70.994-123.17 0-201.5 54.667-235 164l136 24.992c11.333-55.329 42.506-82.998 93.503-82.998 32.167 0 57.169 10.67 75.502 31.836 18.167 21.166 29.5 52.836 33.998 95.168h-143v82.998z"/></glyph><glyph horiz-adv-x="739" unicode="м"><path d="m75.998 519h171l127.5-361.67 129.66 361.67h169.84v-519h-117v341.67l-125.66-341.67h-117.83l-120.5 341.67v-341.67h-117v519z"/></glyph><glyph horiz-adv-x="978" unicode="Ы"><path d="m77.001 716h145v-286h193.17c50.666 0 94.331-7.0001 130.83-20.835 36.5-13.835 67.002-38.505 91.507-74.168 24.33-35.672 36.5-76.67 36.5-123 0-48.495-12.666-90.164-38.008-125.33-25.498-35-53.664-58.172-84.829-69.504-30.999-11.498-76.504-17.164-136.33-17.164h-337.83v716zm145-595.01h141c44.834 0 76.164 2.1708 94 6.5034 17.661 4.3325 33.501 14.331 47.336 29.831 13.825 15.5 20.66 34.338 20.66 56.672 0 31.661-11.333 55.495-33.832 71.325-22.665 15.84-63.498 23.668-122.33 23.668h-146.84v-188zm535 595.01h145v-716h-145v716z"/></glyph><glyph horiz-adv-x="610" unicode="К"><path d="m74.996 716h145.01v-305c32.167 3.3299 53.995 11.498 65.328 25.002 11.342 13.329 29.003 50.5 52.671 111.5 29.831 77.507 60.002 125.84 90.164 144.68 30.006 18.829 78.169 28.332 144.84 28.332 3.3299 0 10.33 0.16557 21 0.49672v-107l-20.504 0.49672c-29.665 0-51.337-3.661-64.997-11.001-13.669-7.3312-24.67-18.498-33.17-33.501-8.4994-14.994-21-45.827-37.502-92.5-8.8306-24.827-18.333-45.496-28.663-62.164-10.174-16.668-28.332-32.333-54.336-46.995 32.167-9.0054 58.668-27.504 79.668-55.173 21-27.66 43.997-66.662 68.998-117.16l97.504-196h-170.01l-85.832 184.33c-1.3338 2.6676-4.1669 7.6716-8.3339 15.168-1.6649 2.502-7.6624 13.835-18.002 33.667-18.333 35.332-33.326 57.334-44.999 66.165-11.829 8.8398-29.665 13.338-53.83 13.669v-313h-145.01v716z"/></glyph><glyph horiz-adv-x="1093" unicode="Љ"><path d="m595 430h193.5c51.834 0 95.334-6.8345 130.83-20.504 35.341-13.669 65.503-37.999 90.339-73 24.836-35.166 37.337-76.504 37.337-124.5 0-48.495-12.335-89.833-36.84-124-24.661-34.338-52.827-57.5-84.829-69.67-31.836-12.17-77.672-18.333-137.33-18.333h-338v595h-198v-340c0-74.002-3.5046-125.34-10.339-154-6.8345-28.663-22.831-53.333-47.998-74.002-25.002-20.66-59.496-30.999-103.34-30.999-11.333 0-24.164 0.50592-38.165 1.4994l-39.167 2.502v121c25.673-4.6637 43.334-7.0001 53.168-7.0001 18.167 0 29.5 5.1696 33.998 15.665 4.5073 10.339 6.8345 33.501 6.8345 69.338v517h488v-286zm0-309.01h140.84c45.165 0 76.495 2.1708 94.165 6.5034 17.661 4.3325 33.501 14.331 47.336 29.831 13.825 15.5 20.66 34.669 20.66 57.666 0 32.333-11.664 56.001-35 71.169-23.493 15.168-63.829 22.831-121.33 22.831h-146.67v-188z"/></glyph><glyph horiz-adv-x="610" unicode="û"><path d="m415 0v77.663c-19.004-27.66-43.831-49.663-74.664-66.165-30.834-16.327-63.332-24.496-97.504-24.496-35 0-66.331 7.6624-94 22.996-27.835 15.334-47.832 37.006-60.168 64.666-12.501 27.835-18.664 66.165-18.664 115.17v329.17h137v-239c0-73.174 2.4928-117.83 7.6624-134.34 5.004-16.502 14.166-29.665 27.669-39.167 13.329-9.6677 30.328-14.497 50.997-14.497 23.502 0 44.502 6.4942 63.166 19.326 18.664 12.841 31.339 28.837 38.165 48.007 6.8345 19.16 10.339 65.834 10.339 140.33v219.33h136.99v-519h-127zm-268 586 102.5 143.99h126.33l101.16-143.99h-110l-56.507 73-52.496-73h-111z"/></glyph><glyph horiz-adv-x="556" unicode="ê"><path d="m372 164 137-22.996c-17.505-50.169-45.33-88.334-83.164-114.67-37.999-26.17-85.5-39.333-142.34-39.333-90.164 0-157 29.5-200.17 88.499-34.163 47.336-51.328 107-51.328 179.17 0 85.997 22.5 153.5 67.333 202.16 44.834 48.835 101.66 73.165 170.33 73.165 77.001 0 137.84-25.498 182.5-76.504 44.502-50.997 65.834-129.17 63.838-234.5h-343c1.0026-40.667 12.004-72.328 33.17-95.002 21-22.665 47.336-33.998 78.666-33.998 21.497 0 39.498 5.8319 54.005 17.505 14.662 11.664 25.664 30.493 33.161 56.497zm8.0027 139c-1.0026 39.83-11.167 70.166-30.668 90.836-19.501 20.835-43.169 31.165-71.169 31.165-29.831 0-54.501-11.001-73.993-32.83-19.501-21.837-29.003-51.668-28.672-89.171h204.5zm-273 283 102.5 143.99h126.33l101.18-143.99h-110l-56.497 73-52.505-73h-111z"/></glyph><glyph horiz-adv-x="722" unicode="Ù"><path d="m73 716h145v-388c0-61.667 1.8397-101.51 5.3352-119.66 6.1722-29.334 20.669-53.002 43.665-70.672 23.171-17.836 54.667-26.666 94.671-26.666 40.501 0 71.169 8.3339 91.829 25.167 20.669 16.833 33.004 37.337 37.171 61.832 4.1669 24.505 6.3286 65.006 6.3286 121.67v396.34h145.01v-376.5c0-85.997-3.8358-146.84-11.673-182.33-7.828-35.497-22.159-65.503-43.16-89.998-20.835-24.505-48.835-43.831-83.835-58.337-35.166-14.497-80.837-21.828-137.33-21.828-68.17 0-119.83 7.828-155 23.668-35.166 15.831-62.992 36.334-83.495 61.667-20.504 25.333-33.832 51.659-40.336 79.494-9.5021 40.998-14.166 101.67-14.166 181.84v382.34zm370 64.997h-85.997l-135.01 146h153l68.005-146z"/></glyph><glyph horiz-adv-x="667" unicode="È"><path d="m73 0v716h530v-121.01h-385v-159h358.01v-121h-358.01v-194.01h399v-121h-544zm347 781h-85.997l-135 146h153l67.996-146z"/></glyph><glyph horiz-adv-x="332" unicode="·"><path d="m98.001 280v136.99h137v-136.99h-137z"/></glyph><glyph horiz-adv-x="279" unicode="¦"><path d="m87 343v385h108v-385h-108zm0-553.01v386h108v-386h-108z"/></glyph><glyph horiz-adv-x="556" unicode="s"><path d="m22.996 146 138.01 21c5.8319-26.501 17.661-46.664 35.663-60.333 17.836-13.835 43.003-20.669 75.17-20.669 35.497 0 62.164 6.5034 80.165 19.501 12.004 9.1709 18.002 21.506 18.002 36.831 0 10.339-3.3391 19.004-9.8332 25.839-6.8345 6.5034-22.168 12.666-45.836 18.167-110.83 24.496-181 46.83-210.66 67.002-41.163 28.166-61.667 67.168-61.667 117 0 45.165 17.836 82.998 53.333 113.67 35.497 30.668 90.495 46.002 165 46.002 70.994 0 123.83-11.664 158.33-34.835 34.494-23.337 58.328-57.666 71.325-103.17l-129-23.999c-5.5007 20.338-16.162 36.003-31.661 46.839-15.5 10.827-37.668 16.162-66.505 16.162-36.334 0-62.329-4.9948-78.16-15.168-10.505-7.1657-15.674-16.493-15.674-27.826 0-9.8332 4.5073-18.167 13.669-25.002 12.501-9.1709 55.338-22.003 128.67-38.671 73.331-16.668 124.5-36.996 153.5-61.161 28.837-24.339 43.169-58.503 43.169-102.17 0-47.501-19.832-88.499-59.662-122.67-39.673-34.163-98.507-51.328-176.5-51.328-70.672 0-126.66 14.331-168 42.828-41.163 28.506-68.17 67.168-80.837 116.17z"/></glyph><glyph horiz-adv-x="610" unicode="b"><path d="m66 0v716h137v-258.34c42.332 48.173 92.335 72.337 150.33 72.337 63.166 0 115.33-22.831 156.67-68.667 41.329-45.836 61.998-111.67 61.998-197.5 0-88.665-21-157-63.166-205-42.166-47.832-93.503-71.831-153.67-71.831-29.665 0-58.834 7.6624-87.662 22.831-28.837 15.334-53.673 37.337-74.499 66.331v-76.164h-127zm135 269.5c0-53.83 8.4994-93.834 25.498-119.5 23.833-36.665 55.338-54.998 94.837-54.998 30.337 0 56.166 12.998 77.663 39.002 21.341 25.995 32.002 66.993 32.002 122.83 0 59.505-10.827 102.33-32.333 128.67-21.497 26.335-49.001 39.498-82.667 39.498-32.995 0-60.333-12.832-82.161-38.496-21.837-25.673-32.839-64.675-32.839-117z"/></glyph><glyph horiz-adv-x="777" unicode="Q"><path d="m648.5 90.67c35.341-25.508 73.837-45.671 115.51-60.674l-53.168-103c-21.672 6.5034-43.003 15.5-63.838 26.998-4.4981 2.3364-36.5 23.502-95.996 63.838-46.839-20.504-98.838-30.834-155.83-30.834-110 0-196.33 32.498-258.67 97.33-62.329 64.997-93.494 156.16-93.494 273.67 0 117.17 31.33 208.34 93.834 273.33 62.495 65.172 147.33 97.67 254.33 97.67 106.17 0 190.34-32.498 252.5-97.67 62.164-64.997 93.328-156 93.328-273.17 0-61.832-8.665-116.33-25.995-163.33-12.998-35.838-33.832-70.663-62.504-104.16zm-115.99 81.333c18.498 21.994 32.333 48.329 41.66 79.328 9.1709 30.999 13.835 66.505 13.835 106.67 0 82.833-18.167 144.66-54.667 185.67-36.5 40.832-84.167 61.327-143 61.327-58.999 0-106.83-20.494-143.33-61.667-36.665-41.163-54.998-103-54.998-185.66 0-83.835 18.333-146.67 54.998-188.16 36.665-41.669 82.998-62.504 139-62.504 21 0 40.667 3.5046 59.165 10.339-29.159 19.16-58.999 33.998-89.161 44.668l40.501 83.992c47.326-16.493 92.666-40.998 136-73.993z"/></glyph><glyph horiz-adv-x="975" unicode="@"><path d="m867.84 8.9962h104.16c-32.498-66.496-82.502-118.5-150-156.16-77.001-43.169-171.17-64.831-282.16-64.831-107.5 0-200.17 18.167-278.34 54.501-78.16 36.5-136.33 90.164-174.33 160.99-38.165 71.004-57.169 148.17-57.169 231.84 0 91.663 21.672 177 65.006 256.16 43.169 79.006 102.5 138.34 177.66 178 75.17 39.673 161.17 59.505 257.84 59.505 82.005 0 155-16.005 218.67-47.832 63.838-32.002 112.66-77.332 146.33-136.17 33.667-58.834 50.5-123 50.5-192.67 0-83.164-25.498-158.17-76.661-225.33-64.003-84.672-146.16-127-246.34-127-26.998 0-47.336 4.6637-60.996 14-13.669 9.5021-22.665 23.162-27.338 41.329-38.33-36.831-82.667-55.329-132.66-55.329-54.005 0-98.838 18.664-134.5 55.835-35.672 37.328-53.499 86.834-53.499 148.67 0 76.495 21.497 146.16 64.325 209.33 52.174 76.835 118.84 115.17 200.17 115.17 57.831 0 100.67-22.168 128.17-66.496l12.16 54.501h128.84l-73.837-349.67c-4.4981-22.159-6.8253-36.5-6.8253-42.994 0-8.0027 1.8305-14.166 5.6663-18.167 3.661-4.1669 8.1591-6.1722 13.329-6.1722 15.665 0 35.838 9.5021 60.664 28.341 33.17 24.661 60.002 57.997 80.506 99.491 20.494 41.669 30.834 84.838 30.834 129.51 0 80-29.003 147-86.834 200.83-58.006 53.83-138.83 80.837-242.67 80.837-88.168 0-163-18.002-224.33-54.005-61.336-36.169-107.5-86.834-138.5-152.34-31.165-65.328-46.664-133.5-46.664-204.33 0-68.833 17.33-131.34 51.999-187.83 34.669-56.497 83.33-97.67 146-123.66 62.504-25.839 134.17-38.836 215-38.836 77.672 0 144.66 11.001 200.5 32.83 56.001 21.837 101.16 54.501 135.34 98.167zm-526.84 200.67c0-41.329 8.3339-71.831 25.002-91.332 16.833-19.501 37.502-29.334 62.164-29.334 18.498 0 35.838 4.5073 51.999 13.669 12.335 6.5034 24.505 16.833 36.5 30.834 17.339 19.832 32.167 48.669 44.668 86.834 12.501 37.999 18.673 73.506 18.673 106.5 0 36.665-8.5086 64.997-25.508 84.663-17.164 19.666-38.661 29.5-64.5 29.5-28 0-53.83-10.827-77.498-32.498-23.668-21.662-41.495-52.496-53.499-92.5-12.004-39.995-18.002-75.502-18.002-106.34z"/></glyph><glyph horiz-adv-x="277" unicode="/"><path d="m-1.9961-12.004 177.99 740h103l-179-740h-101.99z"/></glyph><glyph horiz-adv-x="889" unicode="₥"><path d="m824 0h-137v296.16c0 51.668-4.6637 85.004-14.166 99.5-12.335 19.501-32.002 29.334-58.668 29.334-45.33 0-75.667-22.996-90.836-68.833-7.4968-22.665-11.333-58.503-11.333-107.34v-248.83h-137v97.164l-108-192.17h-77.994l185.99 330.83v48.338c0 36.334-0.66229 59.496-1.9961 69.164-3.5046 30.162-12.832 50.5-27.669 60.996-10.496 7.1748-24.496 10.67-42 10.67-47.161 0-78.16-22.168-93.163-66.331-7.4968-21.837-11.167-57.5-11.167-106.83v-251.84h-137v519h126v-71.5c45.165 54.998 99.004 82.502 161.5 82.502 65.668 0 114.17-26.998 145.34-81.002l110.16 196h78.004l-66.836-119c12.335 2.6676 25.002 4.0014 37.999 4.0014 77.507 0 129.34-30.502 155.67-91.332 9.5021-21.672 14.175-57.5 14.175-107.34v-331.33z"/></glyph><glyph horiz-adv-x="0" unicode="‮"><path d="m-115 515h195v140h-195v35h229v-210h-96.998v-614h-35v614h-96.998v35z"/></glyph><glyph horiz-adv-x="499" unicode="”"><path d="m292 716h137v-98.507c0-39.664-3.5046-70.829-10.505-93.669-7.0001-22.665-19.998-43.325-38.827-61.658-19.004-18.342-43.003-32.839-71.84-43.169l-26.832 56.994c27.338 9.1709 46.839 21.837 58.668 37.999 12.004 16.337 18.002 38.008 18.333 65.006h-66v137zm-230 0h137v-98.507c0-39.664-3.3299-70.829-10.164-93.669-6.8345-22.665-19.841-43.325-38.836-61.658-19.004-18.342-43.169-32.839-72.337-43.169l-26.666 56.994c27.504 9.1709 47.004 21.837 58.668 37.999 11.498 16.337 17.67 38.008 18.333 65.006h-66v137z"/></glyph><glyph horiz-adv-x="0" unicode="‌"><path d="m16.999 629v-763h-35v763h35z"/></glyph><glyph horiz-adv-x="702" unicode="Ӵ"><path d="m60.996 716h145.01v-170.84c0-55.338 1.9961-92.004 6.163-110 4.0014-18.167 16.171-33.832 36.334-47.161 19.998-13.338 49.672-20.007 88.665-20.007 30.834 0 58.337 3.3391 82.502 10.008 23.999 6.6597 44.834 16.493 62.338 29.5v308.5h145v-716h-145v288.5c-29.334-13.007-58.172-22.84-86.503-29.5-28.332-6.6689-56.166-9.9988-83.504-9.9988-71.325 0-131 16.833-178.99 50.5-47.998 33.667-72.006 91.994-72.006 174.99v241.51zm118.5 64.997v118h118v-118h-118zm210.5 0v118h118v-118h-118z"/></glyph><glyph horiz-adv-x="614" unicode="ӣ"><path d="m67.996 519h132.01v-326.17l211 326.17h135v-519h-132v330.83l-214-330.83h-132.01v519zm74.002 67.002v91.001h315v-91.001h-315z"/></glyph><glyph horiz-adv-x="722" unicode="Ӓ"><path d="m718 0h-156.16l-61.842 163h-287.16l-59.505-163h-153.33l278 716h153.16l286.84-716zm-265 284-99.5 265-96.667-265h196.17zm-262.5 497.01v118h118v-118h-118zm210.5 0v118h118v-118h-118z"/></glyph><glyph horiz-adv-x="903" unicode="Ӂ"><path d="m522 716v-305c24.164 1.9961 42.332 11.001 54.667 26.832 12.501 16.005 29.5 52.505 51.337 109.66 28.663 74.499 57.997 122.17 88.002 142.67 29.665 20.163 78.997 30.337 148 30.337 3.1643 0 10.33 0.16557 21 0.49672v-107l-21 0.49672c-29.334 0-50.831-3.661-64.5-11.001-13.669-7.3312-24.836-18.498-33.336-33.501-8.3339-14.994-21-45.827-37.493-92.5-8.8398-24.827-18.342-45.496-28.672-62.164-10.33-16.668-28.497-32.333-54.501-46.995 32.167-9.3365 58.834-27.835 79.834-55.338 21-27.494 44.006-66.496 68.998-117l97.67-196h-170l-86.337 184.5c-0.99344 2.6584-3.661 7.6624-8.3339 15.159-2.6676 4.8384-8.4994 16.005-17.496 33.667-18.167 34.172-33.004 56.001-44.668 65.503-11.664 9.5021-26.004 14.166-43.169 14.166v-313h-141v313c-16.502 0-30.834-4.4981-42.838-13.669-11.995-9.1617-26.998-30.999-44.834-65.834-10.164-19.492-16.162-30.824-18.002-33.667-2.9987-4.8292-5.8319-9.9988-8.3339-15.159l-85.997-184.67h-170l97.661 196c24.008 48.495 46.673 87 68.005 115.5 21.331 28.497 48.504 47.501 81.333 56.838-26.004 14.662-44.171 30.328-54.501 46.83-10.33 16.337-19.998 37.171-29.168 62.329-16.162 45.671-28.497 76.173-36.831 91.507-8.3339 15.334-19.335 26.666-33.17 34.163-13.825 7.4968-36.5 11.333-67.83 11.333-3.8358 0-9.9988-0.16557-18.498-0.49672v107c10.836-0.33115 17.836-0.49672 21-0.49672 70.001 0 119.83-10.339 149.5-30.834 29.334-20.835 58.172-68.336 86.503-142.17 22.168-57.5 39.333-94 51.503-109.83 12.16-15.831 30.328-24.67 54.501-26.666v305h141zm16.005 207h66.993c-3.8266-44.162-19.501-78.997-46.664-104.16-27.163-25.167-62.329-37.834-105.5-37.834-43.334 0-78.5 12.666-105.66 37.834-27.172 25.167-42.838 60.002-46.673 104.16h67.002c2.3364-22.996 10.33-40.501 24.33-52.33 14-11.838 34.338-17.67 61.005-17.67 26.501 0 46.83 5.8319 60.83 17.67 14 11.829 22.003 29.334 24.339 52.33z"/></glyph><glyph horiz-adv-x="556" unicode="Ұ"><path d="m551 716-153.84-308h129.84v-108h-184v-300h-137v300h-182v108h128.16l-152.16 308h150.5l98.001-207.34c12.666-26.666 21.506-49.506 26.335-68.667 6.5034 22.996 15.334 45.827 26.335 68.667l99.5 207.34h150.33z"/></glyph><glyph horiz-adv-x="500" unicode="ҟ"><path d="m501 0h-147.33l-68.502 150.5c-11.995 26.335-21.828 43.665-29.334 51.834-12.326 13.172-29.996 19.666-52.827 19.666v-222h-137v574h-60.002v91.001h60.002v51.006h137v-51.006h66v-91.001h-66v-267c25.167 2.9987 43.831 13.669 56.332 32.167 5.8319 8.4994 14.662 29.665 26.335 63.332 14.994 43.003 30.834 72.503 47.501 88.83 20.826 20.504 51.659 30.668 92.491 30.668 10.505 0 28.506-0.82787 54.336-2.502l0.50592-90.495c-36.334 0-59.505-3.6702-69.835-11.167-10.339-7.4968-21.166-28.497-32.498-63.001-16.005-47.667-39.167-77.166-69.173-88.168 26.666-7.4968 50.169-23.668 70.332-48.835 10.836-13.66 25.839-38.33 45.008-74.168l76.661-143.66z"/></glyph><glyph horiz-adv-x="667" unicode="Ҏ"><path d="m621 286.66-64.003-63.994-66.331 66.496c-9.3365-4.0014-19.17-6.8345-29.168-8.8306-33.17-6.8345-82.998-10.33-149.5-10.33h-94v-270h-145v716h231.83c87.506 0 144.66-3.5046 171.67-10.67 46.83-12.501 83.164-38.505 108.83-78.169 23.833-36.831 35.672-80.662 35.672-131.5 0-63.498-18.002-115-54.17-154.83l54.17-54.17zm-149 207c0 25.167-7.3404 46.333-21.837 63.663-14.662 17.339-34.338 28.166-58.999 32.839-17.505 3.1643-51.999 4.8292-103.67 4.8292h-69.504v-204h78.841c36.665 0 65.834 1.6649 87.165 4.9948l-48.669 49.001 63.663 64.169 62.504-62.67c7.0001 13.835 10.505 29.5 10.505 47.17z"/></glyph><glyph horiz-adv-x="900" unicode="ѽ"><path d="m791 674c-47.832 0-92.832 9.1617-135.16 27.329-32.839 16.668-65.668 33.336-98.673 50.334-37.668 18.167-75.161 27.329-112.17 27.329-35.166 0-64.16-10.827-86.834-32.664-19.832-19.335-32.333-43.334-37.162-72.328h-87c6.4942 49.994 29.168 92.997 67.83 129.33 42 39.167 91.838 58.668 149.34 58.668 43.665 0 99.16-17.174 166.49-51.503 67.333-34.338 125.17-51.503 173.34-51.503v-84.994zm-289 3.8266c0-29.334-7.0001-51.999-21-68.327-12.335-14.34-33.336-26.841-62.835-37.502l-17.164 46.995c15.996 6.1722 26.335 11.333 31.33 15.168 9.1709 7.1657 13.669 17.164 13.669 29.831h-44.999v83.008h101v-69.173zm357-419.83c0-81.168-21-146-62.992-194.16-44.171-51.171-106-76.835-185.67-76.835-61.832 0-115 10.827-159.5 32.664-42-21.837-95.334-32.664-160-32.664-79.659 0-141.67 25.664-185.83 76.835-42 48.164-63.001 113-63.001 194.16 0 82.17 21.166 147.5 63.332 195.66 44.171 50.84 106.83 76.339 187.67 76.339v-108c-73.331 0-110-51.337-110-154.17 0-112.5 39.673-168.83 119-168.83 52.34 0 102 15.5 148.83 46.333 50.003-30.834 99.335-46.333 148.17-46.333 79.337 0 119 56.332 119 168.83 0 102.83-37.337 154.17-112 154.17v108c81.83 0 145.17-25.498 189.66-76.339 42.166-48.164 63.332-113.49 63.332-195.66z"/></glyph><glyph horiz-adv-x="1077" unicode="Ѭ"><path d="m1037 0h-145v89.502c0 108.17-19.666 174.16-58.834 198-20.504 12.335-49.497 18.829-87.165 19.501v-307h-145v307c-62.504-0.67149-104.17-22.665-125.01-66-14-29.003-21-79.503-21-151.5v-89.502h-145v113.34c0 86.834 11.333 151.33 34.163 193.67h-131.16v-307h-145.01v716h145.01v-299.01h318l-192.67 299.01h671.34l-193.17-299.01c42.497-0.99344 78.831-11.001 109.33-30.328 45.33-28.672 76.339-68.502 92.997-119.51 12.17-36.831 18.167-88.159 18.167-153.83v-113.34zm-261.83 595h-198.17l100.17-171.99 98.001 171.99z"/></glyph><glyph horiz-adv-x="610" unicode="ћ"><path d="m70.001 659v57.003h137v-57.003h167v-71.997h-167v-134.67c22.334 25.995 46.83 45.496 73.662 58.328s56.001 19.335 87.506 19.335c41.826 0 76.826-9.3365 104.83-28 28-18.839 46.839-42.166 56.507-70.332 9.6585-28.166 14.497-70.672 14.497-127.67v-304h-137v273.67c0 46.664-1.8305 78.335-5.6663 95.168-3.8358 16.999-12.666 30.502-26.501 40.832-13.835 10.164-31.827 15.334-54.326 15.334-36.84 0-65.006-12.004-84.341-35.838-19.501-23.999-29.159-67.158-29.159-129.5v-259.66h-137v587h-71.004v71.997h71.004z"/></glyph><glyph horiz-adv-x="729" unicode="ъ"><path d="m19.998 519h306v-216h136.84c54.998 0 96.667-3.6702 124.83-11.167 28.166-7.4968 51.999-24.164 71.831-50.003 19.666-25.995 29.5-56.166 29.5-90.495 0-44.337-14.497-80.496-43.5-108.84-28.994-28.332-83.495-42.497-163.5-42.497h-293v408h-169v111zm306-431h127.67c40.004 0 65.834 6.3286 77.166 19.16 11.507 12.841 17.174 28.166 17.174 46.333 0 24.836-9.6677 42-29.168 51.503-19.335 9.3365-54.005 14-103.83 14h-89.005v-131z"/></glyph><glyph horiz-adv-x="614" unicode="й"><path d="m67.996 519h132.01v-326.17l211 326.17h135v-519h-132v330.83l-214-330.83h-132.01v519zm327.01 209h66.993c-3.8266-44.162-19.492-78.997-46.664-104.16-27.163-25.167-62.329-37.834-105.5-37.834-43.334 0-78.5 12.666-105.66 37.834-27.172 25.167-42.838 60.002-46.673 104.16h67.002c2.3364-22.996 10.33-40.501 24.33-52.33 14-11.838 34.338-17.67 61.005-17.67 26.501 0 46.83 5.8319 60.83 17.67 14 11.829 22.003 29.334 24.339 52.33z"/></glyph><glyph horiz-adv-x="1004" unicode="Ш"><path d="m74.996 716h145.01v-595.01h206v595.01h145v-595.01h213v595.01h144l0.99344-716.5-854 0.49672v716z"/></glyph><glyph horiz-adv-x="626" unicode="З"><path d="m175 521-141 33.004c30.337 116.66 116.5 175 258.51 175 83.992 0 147.5-18.498 190.33-55.504 42.838-36.996 64.169-80.496 64.169-130.5 0-34.163-9.8332-64.997-29.334-92.666-19.501-27.504-48.835-51.668-87.837-72.668 47.336-16.327 83.008-39.333 106.68-69.164 23.659-29.996 35.497-66.671 35.497-110.5 0-63.001-23.006-113.83-69.164-152.67-46.002-38.827-115-58.328-206.84-58.328-74.83 0-134 12.501-177.33 37.493-43.334 25.002-75.833 71.84-97.67 140.51l132 42.994c13.669-43.16 32.002-71.16 54.667-83.826 22.665-12.841 50.666-19.17 84.001-19.17 45.671 0 78.997 9.8332 99.997 29.665 20.835 19.832 31.339 42.497 31.339 68.17 0 29.334-11.838 53.168-35.506 71.16-23.493 18.002-59.165 27.007-106.67 27.007h-32.83v108h16.502c44.162 0 77.994 9.9988 101.33 29.831 23.502 19.832 35.166 46.333 35.166 79.163 0 26.17-9.5021 48.173-28.497 66.174-19.004 17.827-46.167 26.832-81.508 26.832-60.499 0-99.16-30.006-115.99-90.008z"/></glyph><glyph horiz-adv-x="277" unicode="І"><path d="m67.996 0v716h145.01v-716h-145.01z"/></glyph><glyph horiz-adv-x="610" unicode="ø"><path d="m462.34 487.5 51.162 58.999 54.005-44.999-52.505-60.839c19.501-23.162 34.835-50.666 46.167-82.502 11.167-31.827 16.833-65.162 16.833-99.997 0-77.663-25.498-142.33-76.67-193.83-51.162-51.503-115.17-77.332-192.33-77.332-56.001 0-106 14-150 42l-56.497-65.503-53.995 46.002 57.325 66.331c-20.163 23.668-35.828 51.999-46.995 85.004-11.167 32.83-16.833 66.496-16.833 101 0 78.16 25.002 142.33 75.17 192.66 49.994 50.334 114.16 75.502 192.5 75.502 57.997 0 109-14.166 152.67-42.497zm-77.166-89.171c-21.837 17.836-46.673 26.666-74.499 26.666-37.006 0-68.502-14.166-94.175-42.663-25.664-28.506-38.496-68.336-38.496-119.84 0-32.333 4.6637-61.501 14-87.331l193.17 223.17zm41.826-59.33-192.17-222.34c21.672-15.831 46.333-23.668 74.168-23.668 37.668 0 69.173 14.166 94.671 42.506 25.498 28.332 38.33 67.996 38.33 118.99 0 30.834-4.9948 58.834-15.003 84.507z"/></glyph><glyph horiz-adv-x="556" unicode="ç"><path d="m524 365-135.01-23.999c-4.4981 26.832-14.828 47.004-30.999 60.664-16.162 13.503-36.996 20.338-62.66 20.338-34.172 0-61.501-11.838-81.839-35.497-20.329-23.668-30.502-63.166-30.502-118.67 0-61.667 10.339-105.17 31.008-130.66 20.66-25.498 48.329-38.165 82.998-38.165 25.995 0 47.336 7.4968 63.829 22.334 16.668 14.828 28.332 40.326 35.166 76.661l135.01-22.996c-14-61.998-40.842-108.84-80.506-140.5-39.664-31.67-92.832-47.501-159.67-47.501-75.667 0-136.17 23.999-181.16 71.831-45.165 47.998-67.664 114.33-67.664 199.17 0 85.832 22.665 152.5 67.83 200.34 45.174 47.832 106.34 71.666 183.5 71.666 63.001 0 113.17-13.669 150.5-40.832 37.171-27.172 63.838-68.502 80.174-124.17zm-381.5-556v57.334c33.667-3.5046 64.5-5.3352 92.666-5.3352 28.994 0 50.666 5.1696 64.666 15.665 10.836 7.8372 16.162 17.836 16.162 30.337 0 11.001-4.9948 20.66-15.168 28.828-10.164 8.1683-25.83 12.17-46.995 12.17-21 0-42.332-3.3299-64.334-9.8332l12.832 48.495c25.333 9.0054 52.671 13.338 82.005 13.338 40.832 0 71.666-8.9962 92.832-26.832 21.166-18.002 31.836-39.839 31.836-65.503 0-28.828-11.673-51.999-35.166-70.001-31.67-24.496-77.001-36.665-136-36.665-42 0-73.837 2.6676-95.334 8.0027z"/></glyph><glyph horiz-adv-x="777" unicode="Ö"><path d="m43.003 353.66c0 73 11.001 134.34 32.83 184 16.171 36.5 38.505 69.338 66.671 98.332 28.166 29.003 58.999 50.5 92.5 64.675 44.659 18.829 96.162 28.332 154.5 28.332 105.66 0 190-32.839 253.49-98.332 63.341-65.668 95.002-156.84 95.002-273.67 0-115.84-31.496-206.51-94.331-271.84-62.835-65.503-147-98.167-252.17-98.167-106.5 0-191.33 32.498-254.16 97.661-62.835 65.006-94.331 154.67-94.331 269zm149 4.8384c0-81.168 18.829-142.67 56.332-184.67 37.502-41.835 85.169-62.835 142.84-62.835 57.831 0 105.17 20.835 142.33 62.338 37.006 41.66 55.504 104 55.504 187.16 0 82.17-18.002 143.5-54.17 183.83-35.994 40.501-83.826 60.664-143.66 60.664-59.671 0-107.83-20.494-144.33-61.327-36.5-41.007-54.832-102.67-54.832-185.17zm30.999 422.5v118h118v-118h-118zm210.5 0v118h118v-118h-118z"/></glyph><glyph horiz-adv-x="722" unicode="Å"><path d="m718 0h-156.16l-61.842 163h-287.16l-59.505-163h-153.33l278 716h153.16l286.84-716zm-265 284-99.5 265-96.667-265h196.17zm-4.0014 475c0-26.161-9.3365-48.495-27.835-67.168-18.664-18.498-40.998-27.835-67.168-27.835-26.161 0-48.495 9.3365-67.158 27.835-18.507 18.673-27.835 41.007-27.835 67.168 0 26.17 9.3273 48.504 27.835 67.168 18.664 18.498 40.998 27.835 67.158 27.835 26.17 0 48.504-9.1709 67.168-27.669 18.498-18.333 27.835-40.832 27.835-67.333zm-51.999 0c0 12.004-4.1669 22.003-12.501 30.502-8.4994 8.3339-18.498 12.501-30.502 12.501-11.829 0-21.994-4.1669-30.493-12.501-8.3339-8.4994-12.501-18.498-12.501-30.502 0-11.829 4.1669-22.003 12.501-30.502 8.4994-8.3339 18.664-12.492 30.493-12.492 12.004 0 22.003 4.1577 30.502 12.492 8.3339 8.4994 12.501 18.673 12.501 30.502z"/></glyph><glyph horiz-adv-x="332" unicode="´"><path d="m91.001 582 67.996 146h153l-135-146h-85.997z"/></glyph><glyph horiz-adv-x="556" unicode="£"><path d="m488 139 51.999-116c-18.498-9.9988-40.004-18.167-64.169-24.496-24.33-6.3378-47.832-9.5021-70.663-9.5021-29.168 0-68.336 7.0001-117.17 21-48.826 14-84.994 21-108.33 21-39.83 0-80.331-14.331-121.67-43.003l-51.999 118.34c37.006 26.501 63.507 54.667 79.668 84.498 16.171 29.831 24.33 58.172 24.33 85.335 0 8.8306-0.66229 18.002-1.9961 27.835h-102v108h77.001c-13.329 38.496-19.998 77.332-19.998 116.66 0 35.497 9.6677 69.495 29.003 101.66 19.492 32.167 46.83 56.672 82.327 73.506 35.672 16.833 74.333 25.167 116.33 25.167 64.169 0 115.33-16.171 153.5-48.669 37.999-32.498 61.327-78.997 69.826-139.84l-132-19.501c-6.163 35.175-17.33 60.508-33.667 75.842-16.162 15.5-36.5 23.162-60.83 23.162-25.83 0-47.501-8.665-64.666-26.17-17.164-17.496-25.839-39.333-25.839-65.834 0-13.66 2.3364-31.827 7.0001-54.326 4.6728-22.5 10.505-43.003 17.339-61.667h151.66v-108h-129.5c0.99344-7.1657 1.4994-14.331 1.4994-21.506 0-25.664-4.8384-49.497-14.672-71.16-9.6677-21.837-29.831-50.5-60.002-86.006 17.836 9.1709 40.336 13.669 67.333 13.669 11.342 0 21.672-0.66229 30.668-1.9961 4.6728-0.67149 17.836-3.8358 40.004-9.5021 39.333-10.33 66-15.5 80.331-15.5 25.333 0 58.503 8.9962 99.335 26.998z"/></glyph><glyph horiz-adv-x="610" unicode="p"><path d="m67.996 519h128.01v-76.164c16.668 25.995 39.002 46.995 67.333 63.166 28.332 15.996 59.827 23.999 94.331 23.999 60.168 0 111.33-23.668 153.33-71.004 42-47.161 63.001-113.16 63.001-197.5 0-86.825-21.166-154.16-63.498-202.33-42.332-48.164-93.669-72.162-154-72.162-28.663 0-54.667 5.6663-77.994 17.164-23.171 11.333-47.842 30.834-73.506 58.503v-259.66h-137v716zm135.01-251.5c0-58.503 11.498-101.67 34.66-129.67 23.006-27.835 51.171-41.835 84.167-41.835 31.836 0 58.337 12.841 79.503 38.505s31.67 67.664 31.67 126.17c0 54.667-10.836 95.168-32.673 121.67-21.662 26.492-48.66 39.664-80.828 39.664-33.501 0-61.336-12.998-83.339-39.002-22.159-25.995-33.161-64.5-33.161-115.5z"/></glyph><glyph horiz-adv-x="556" unicode="_"><path d="m-8.9962-198v88.996h570v-88.996h-570z"/></glyph><glyph horiz-adv-x="722" unicode="N"><path d="m73 0v716h140.33l294.67-479.84v479.84h134v-716h-144.84l-290.16 470.67v-470.67h-134z"/></glyph><glyph horiz-adv-x="583" unicode="="><path d="m40.998 397v127h501v-127h-501zm0-217v127h501v-127h-501z"/></glyph><glyph horiz-adv-x="277" unicode=","><path d="m67.996 137h137v-98.167c0-39.673-3.3299-71.169-10.164-94-6.8345-23.006-19.832-43.665-38.836-61.832-18.995-18.333-43.169-32.508-72.328-43.003l-26.666 57.003c27.494 9.1617 46.995 21.662 58.659 37.659 11.507 15.84 17.67 37.668 18.342 65.337h-66.009v137z"/></glyph><glyph horiz-adv-x="722" unicode="∩"><path d="m171 0h-101v292.5c0 82.833 1.1682 135.49 3.4954 158.32 3.8358 40.667 11.507 74.508 23.171 101.67 11.498 26.998 29.665 53.499 54.501 79.328 25.002 25.839 55.495 46.839 91.994 63.001 36.334 16.171 75.17 24.174 116.17 24.174 39.333 0 76.67-7.6716 112.33-23.006 35.672-15.334 66.671-35.994 93.338-62.164 26.666-26.335 46.002-54.005 57.666-83.33 11.664-29.334 19.501-66.34 23.337-110.84 1.3338-17.992 1.9961-66.993 1.9961-147.16v-292.5h-99.997v295.83c0 68.667-0.83707 112.5-2.502 131.34-2.8332 33.832-8.4994 61.998-16.999 84.498-6.1722 16.502-17.164 33.336-32.839 50.169-15.831 16.999-35.994 30.834-60.664 41.826-24.661 10.836-49.994 16.337-75.998 16.337-26.004 0-51.834-5.8319-77.663-17.496-25.839-11.838-46.839-27.007-62.835-45.671-16.171-18.829-27.338-39.498-33.667-62.329-6.3378-22.674-10.339-49.506-12.335-80-1.0026-16.668-1.4994-56.175-1.4994-118.67v-295.83z"/></glyph><glyph horiz-adv-x="834" unicode="⅝"><path d="m243.33-26.004h-77.663l424 751h77.507l-423.84-751zm-220.33 484.17 93.006 7.828c4.1669-33.336 22.5-49.994 54.998-49.994 16.162 0 29.334 5.5007 39.167 16.658 9.8332 11.001 14.828 26.335 14.828 45.836 0 39.002-18.995 58.503-57.16 58.503-22.84 0-43.003-8.665-60.674-26.004l-75.161 9.3365 44.502 197.67h224.5v-78.004h-153.84l-8.1683-42.332c15.5 4.8384 30.834 7.3312 46.002 7.3312 38.836 0 71.004-11.829 96.667-35.497 25.498-23.502 38.33-53.333 38.33-89.171 0-32.83-12.832-63.166-38.661-90.826-25.673-27.669-62.67-41.504-110.83-41.504-41.338 0-75.17 9.6677-101.34 28.837-26.161 19.16-41.66 46.333-46.167 81.333zm556.83-280.17c-32.498 15.168-48.826 39.83-48.826 74.002 0 27.66 11.664 50.666 34.826 69.164 23.171 18.498 56.001 27.835 98.507 27.835 42.663 0 75.833-9.5021 99.326-28.332 23.502-18.839 35.341-42.166 35.341-70.166 0-30.834-15.84-55.007-47.336-72.503 40.17-15.996 60.333-45.165 60.333-87.331 0-35.506-13.338-63.838-40.17-85.004s-61.161-31.67-102.66-31.67c-42.828 0-78.169 10.174-106.17 30.502-28 20.338-42 47.832-42 82.667 0 41.338 19.666 71.666 58.834 90.836zm39.167 66.331c0-22.831 15.334-34.329 46.002-34.329s46.002 12.16 46.002 36.334c0 23.833-15.334 35.663-46.002 35.663s-46.002-12.501-46.002-37.668zm-7.0001-151.66c0-15.168 5.1696-27.504 15.674-36.831 10.496-9.1709 23.659-13.835 39.664-13.835 15.168 0 27.835 4.3325 37.668 13.163 9.9988 8.8398 14.994 21.166 14.994 37.171 0 15.168-4.8292 27.329-14.497 36.334-9.5021 8.8306-22.5 13.329-38.671 13.329-16.999 0-30.328-4.4981-40.161-13.329-9.8332-9.0054-14.672-21-14.672-36.003z"/></glyph><glyph horiz-adv-x="722" unicode="₳"><path d="m458.67 269-28.166 74.002h-152.17l-26.998-74.002h207.34zm-67.333 180-37.999 99.997-36.334-99.997h74.333zm326.67-449h-156.16l-61.842 163h-287.32l-59.34-163h-153.33l63.332 163h-63.332v106h104.5l28.663 74.002h-133.17v106h174.33l103.67 267.01h153l107.01-267.01h180v-106h-137.5l29.665-74.002h107.83v-106h-65.337l65.337-163z"/></glyph><glyph horiz-adv-x="722" unicode="₢"><path d="m671 218.5c-42.332-154.33-141.49-231.5-297.5-231.5-102.66 0-183.67 35.663-243 107.16-55.67 66.671-83.495 152.34-83.495 257.5 0 111.16 27.66 200.67 82.998 268.16 59.662 72.834 143.66 109.17 252.16 109.17 87.671 0 158.84-25.839 213.51-77.672 32.664-30.999 56.994-74.996 73.331-132.16l-143-34.163c-8.4994 37.328-26.17 66.662-53.002 88.002-26.998 21.331-59.662 31.992-98.001 31.992-119.33 0-178.99-80.828-178.99-242.67 0-90.826 16.162-155.33 48.66-193.83 13.338-15.665 28.506-28.332 45.34-37.668v290.17h127v-73.496c17.67 28.332 33.667 48.329 48.007 60.168 19.832 16.833 43.325 25.333 70.498 25.333 31.33 0 61.501-8.665 90.495-25.839l-42.663-119.66c-23.171 15.003-44.668 22.5-64.666 22.5-40.17 0-67.002-24.496-80.331-73.662-6.3378-22.168-10.008-60.674-11.342-115.34 52.174 20.172 86.834 67.499 104.01 142.01l139.99-44.502z"/></glyph><glyph horiz-adv-x="0" unicode="⁯"><path d="m-115 515h96.998v140h-96.998v35h132v-175h96.998v-35h-96.998v-614h-35v614h-96.998v35z"/></glyph><glyph horiz-adv-x="332" unicode="⁞"><path d="m235 0h-137v137h137v-137zm0 193h-137v136.99h137v-136.99zm0 192.99h-137v137h137v-137zm0 193h-137v137h137v-137z"/></glyph><glyph horiz-adv-x="604" unicode="‼"><path d="m136.5 184-35.497 363.84v168.17h148v-168.17l-35-363.84h-77.507zm-29.5-184v137h137v-137h-137zm288.5 184-35.497 363.84v168.17h148v-168.17l-35-363.84h-77.498zm-29.5-184v137h137v-137h-137z"/></glyph><glyph horiz-adv-x="0" unicode="‫"><path d="m-211 568v35h228v-737h-35v702h-192.99z"/></glyph><glyph horiz-adv-x="277" unicode="‚"><path d="m67.996 137h137v-98.167c0-39.673-3.3299-71.169-10.164-94-6.8345-23.006-19.832-43.665-38.836-61.832-18.995-18.333-43.169-32.508-72.328-43.003l-26.666 57.003c27.494 9.1617 46.995 21.662 58.659 37.659 11.507 15.84 17.67 37.668 18.342 65.337h-66.009v137z"/></glyph><glyph horiz-adv-x="556" unicode="ӱ"><path d="m5.9974 519h146l124.5-368.16 121.5 368.16h142l-183-499.5-33.004-90.164c-12.17-30.171-23.668-53.168-34.669-69.173-10.827-15.831-23.493-28.828-37.668-38.661-14.166-9.9988-31.661-17.67-52.496-23.171-20.669-5.5007-44.162-8.3339-70.332-8.3339-26.335 0-52.33 2.8332-77.838 8.3339l-11.995 107.01c21.497-4.1669 40.998-6.3378 58.328-6.3378 32.002 0 55.67 9.3365 71.004 28.166 15.334 18.829 27.163 42.838 35.332 71.831l-197.67 520zm103.5 67.002v118h118v-118h-118zm210.5 0v118h118v-118h-118z"/></glyph><glyph horiz-adv-x="626" unicode="Ӡ"><path d="m574 212.33c0-76.826-29.5-135.33-88.334-175.5-49.166-33.161-111.33-49.828-186.5-49.828-73.496 0-131.83 12.998-175.17 39.167-46.499 28-80.828 74.168-103 138.33l132 43.5c23.502-68.667 70.838-103 141.83-103 38.836 0 69.67 8.9962 92.5 26.998 25.167 19.666 37.668 47.998 37.668 85.335 0 39.83-16.171 70.498-48.329 91.663-26.666 17.339-58.668 26.004-96.005 26.004h-32.664v108l143.5 152h-338.5v121.01h519v-112.17l-170.34-178.84c56.166-7.8372 99.841-33.336 131-76.67 27.494-38.496 41.329-83.826 41.329-136z"/></glyph><glyph horiz-adv-x="277" unicode="ӏ"><path d="m71.997 0v716h137v-716h-137z"/></glyph><glyph horiz-adv-x="856" unicode="Ҿ"><path d="m816 362.16c0-14.662-1.8397-35.828-5.3352-63.166h-484.67c5.8411-53.664 22.674-96.998 50.334-129.66 30.834-36.84 72.337-55.338 124.34-55.338 78.5 0 129.66 39.002 153.33 117l143-32.673c-15.996-69.992-51.162-123.16-105.5-159.83-40.336-27.163-88.168-43.5-143.5-48.991v-121.5h-91.001v122c-81.499 9.5021-147 43.169-196.66 101.16-46.508 54.17-74.168 123.5-83.339 207.83-114.67 0-171.99 47.336-171.99 142 0 39.167 5.8319 77.507 17.496 115l95.334-18.498c-5.1696-21.828-7.8372-42.828-7.8372-63.001 0-21.662 5.8411-36.665 17.67-44.668 9.3365-6.4942 25.498-9.8332 48.329-9.8332 11.342 120.17 61.501 208.17 150.34 264.17 47.501 29.831 104.83 44.834 171.83 44.834 75.17 0 136.67-19.501 184.5-58.668 88.83-73.165 133.33-175.83 133.33-308.17zm-153 57.831c-6.8345 53.002-22.5 95.334-46.839 127.34-28.994 38.505-68.502 57.666-118.16 57.666-98.167 0-155.34-61.667-172-185h337.01z"/></glyph><glyph horiz-adv-x="489" unicode="ҭ"><path d="m479 408h-166.01v-297h54.005v-248h-111v137h-80.009v408h-166v111h469.01v-111z"/></glyph><glyph horiz-adv-x="610" unicode="Ҝ"><path d="m601 0h-169.67l-85.335 185.33c-6.8345 12.666-16.833 31.67-30.006 56.672v-140h-51.999v204.16c-11.333 4.8384-25.995 7.506-43.997 7.8372v-314h-145.01v716h145.01v-304c17.661 1.6649 32.333 4.9948 43.997 10.33v192.66h51.999v-121.49c7.1657 16.162 14.506 34.329 22.168 54.501 26.501 70.498 53.499 116.33 80.837 137.5 30.493 23.328 81.665 35 154 35 3.1643 0 10.164 0.16557 21 0.49672v-107l-20.504 0.49672c-47.998 1.3338-80.671-13.494-97.836-44.328-8.3339-15.003-20.835-45.836-37.328-92.335-10.339-29.168-20.172-50.334-29.674-63.332-11.664-16.833-29.5-31.836-53.333-45.174 34.172-9.6677 64.5-32.83 91.001-69.329 13.669-19.004 32.839-53.333 57.334-103.34l97.339-196.66z"/></glyph><glyph horiz-adv-x="614" unicode="ҋ"><path d="m464 728c-3.8358-43.831-19.335-78.5-46.167-104-26.832-25.333-62.338-37.999-106.34-37.999-43.665 0-78.997 12.832-106 38.33-27.172 25.498-42.672 60.002-46.508 103.67h67.002c4.4981-46.664 33.004-70.001 85.5-70.001 52.505 0 81.002 23.337 85.5 70.001h67.002zm150.99-617-89.998-248h-111l58.172 137h-58.172v331.84l-214-331.84h-132.01v519h132.01v-326l211 326h135v-408h68.998z"/></glyph><glyph horiz-adv-x="814" unicode="Ѻ"><path d="m797 353.66c0-103.67-26.832-186.5-80.662-248.83-51.337-59.505-123.84-96.502-217.33-110.83-21.166-36.665-51.834-54.998-92.004-54.998-40.161 0-70.829 18.333-91.994 54.998-93.503 14.331-166.01 51.328-217.33 110.83-53.839 62.329-80.671 145.16-80.671 248.83 0 104.5 26.832 188.67 80.671 252.5 51.659 60.664 124.49 98.838 218.33 114.83 21.166 35.332 51.503 53.002 91.332 53.002 41.173 0 71.84-17.67 91.673-53.002 93.669-15.996 166.16-54.17 217.5-114.83 53.664-63.829 80.496-148 80.496-252.5zm-149 4.4981c0 64.169-15.5 117.83-46.333 160.67-28.497 39.498-67.002 66.165-115.33 80.165-21.506-23.999-47.832-36.003-79.006-36.003-31.33 0-57.666 12.004-79.163 36.003-48.504-14-87-40.667-115.33-80.165-31.165-42.838-46.839-96.502-46.839-160.67 0-64.666 15.674-118.66 46.839-161.66 28.994-39.664 68.161-66.496 117.33-80.496 22.674 22.665 48.338 33.998 76.835 33.998 28.837 0 54.667-11.333 77.332-33.998 48.835 14 87.837 40.832 116.84 80.496 31.165 43.003 46.83 96.998 46.83 161.66z"/></glyph><glyph horiz-adv-x="800" unicode="ѩ"><path d="m788 0h-141.17l-62.66 174h-20.172v-174h-88.002v174h-20.66l-62.173-174h-144.16l70.166 174h-110.17v-174h-137v519h137v-265h142.33l106.84 265h124.49l205.34-519zm-232.83 254-35.672 99.004-35.497-99.004h71.169z"/></glyph><glyph horiz-adv-x="277" unicode="ј"><path d="m68.998 589v127h137v-127h-137zm137-70.001v-502.5c0-66-4.3325-112.67-12.998-139.84-8.4994-27.163-25.167-48.504-49.838-63.663-24.496-15.334-55.835-23.006-94-23.006-13.669 0-28.332 1.1682-44.162 3.6702-15.84 2.3364-32.839 5.9974-51.006 11.001l23.502 116.66c6.5034-1.1682 12.666-2.3364 18.498-3.1643 5.6663-0.83707 11.001-1.1682 16.005-1.1682 14 0 25.664 2.9987 34.66 8.9962 9.0054 6.0066 15.003 13.338 17.836 21.837 2.9987 8.4994 4.4981 33.832 4.4981 76.164v495h137z"/></glyph><glyph horiz-adv-x="580" unicode="ч"><path d="m56.001 519h139v-124.16c0-28.341 2.502-49.341 7.4968-63.341 5.1696-13.835 15.84-25.664 32.333-35.663 16.337-9.8332 37.171-14.837 62.173-14.837 24.33 0 51.668 5.5007 81.996 16.668v221.34h137v-519h-137v207.5c-53.499-14.331-94.165-21.497-122.17-21.497-42 0-79.834 8.9962-113.34 27.163-33.501 18.002-56.497 41.163-68.998 69.329-12.335 28.175-18.498 65.668-18.498 112.51v124z"/></glyph><glyph horiz-adv-x="709" unicode="ж"><path d="m287 0v221c-17.836-1.3338-30.337-5.3352-37.337-12.004-7.0001-6.6689-19.335-26.335-36.831-59.165l-65.337-149.84h-147.5l73.165 143c37.171 71.335 75.667 112.33 115.67 122.66-29.84 11.507-52.671 41.007-68.502 88.839-12.17 35.663-23.006 56.994-33.004 63.994-9.8332 7.0001-32.995 10.505-69.329 10.505v90.495c26.998 1.6741 45.836 2.502 56.497 2.502 30.171 0 56.001-6.6689 77.498-19.998 21.506-13.503 41.669-46.83 60.508-99.997 14.497-41.504 26.326-67.674 34.991-78.666 8.8398-10.836 22.003-16.668 39.508-17.339v213h136.99v-213c17.505 0 30.834 5.6663 39.673 17.164 8.9962 11.333 20.66 37.668 34.826 78.841 18.673 52.496 38.34 85.666 59.34 99.5 20.835 13.66 47.832 20.494 80.662 20.494 9.3365 0 27.504-0.82787 54.501-2.502v-90.495c-36.003 0-58.999-3.5046-69.164-10.505-9.9988-7.0001-21-28.332-33.004-63.994-15.996-47.832-38.827-77.332-68.667-88.839 40.004-10.33 78.5-51.328 115.67-122.66l73.165-143h-147.5l-64.831 149.84c-11.673 26.666-22.5 44.834-32.508 54.501-9.8332 9.8332-23.999 15.334-42.166 16.668v-221h-136.99z"/></glyph><glyph horiz-adv-x="667" unicode="Х"><path d="m0.49672 0 247.17 373.33-224.17 342.67h168.83l141-213.17 141 213.17h169.17l-224.66-342.84 246.66-373.17h-173.66l-158.66 242.5-158.84-242.5h-173.83z"/></glyph><glyph horiz-adv-x="712" unicode="Д"><path d="m131 716h494.01v-595.01h63.001v-277h-121.01v156h-449v-156h-121v277h60.996c29.674 61.17 49.341 132.17 58.834 212.84 9.5021 80.837 14.166 183 14.166 306.5v75.667zm138.01-121.01c0-216.66-19.998-374.66-60.002-474h271v474h-211z"/></glyph><glyph horiz-adv-x="566" unicode="Ѓ"><path d="m74.996 716h504.01v-121.01h-359v-595h-145.01v716zm172 64.997 68.005 146h153l-135.01-146h-85.997z"/></glyph><glyph horiz-adv-x="610" unicode="õ"><path d="m40.004 265.84c0 45.662 11.158 89.833 33.667 132.5 22.5 42.838 54.326 75.336 95.499 97.836 41.163 22.5 87 33.832 137.83 33.832 78.5 0 142.67-25.498 192.83-76.504 50.169-51.162 75.17-115.5 75.17-193.5 0-78.666-25.333-143.83-75.833-195.5-50.666-51.668-114.34-77.498-191.16-77.498-47.501 0-92.841 10.827-136 32.333-43.003 21.497-75.833 53.002-98.332 94.662-22.509 41.504-33.667 92.169-33.667 151.84zm141-7.3404c0-51.493 12.17-91.001 36.5-118.33 24.505-27.504 54.501-41.163 90.33-41.163 35.672 0 65.668 13.66 89.842 41.163 24.164 27.329 36.325 67.168 36.325 119.33 0 50.831-12.16 89.998-36.325 117.34-24.174 27.494-54.17 41.163-89.842 41.163-35.828 0-65.825-13.669-90.33-41.163-24.33-27.338-36.5-66.836-36.5-118.34zm33.004 326.5h-63.001c-0.34035 7.4968-0.50592 13.338-0.50592 17.505 0 34.163 8.3339 60.499 25.002 78.831 16.502 18.498 37.999 27.669 64.003 27.669 11.498 0 21.994-1.1682 31.827-3.6702 9.8332-2.502 27.669-9.5021 53.508-21 25.995-11.498 46.167-17.33 60.996-17.33 10.33 0 19.004 3.3299 26.004 9.8332 7.1657 6.6597 11.498 17.661 13.494 33.161h63.001c-0.33115-44.502-8.4994-76.164-24.496-95.334-16.171-19.16-36.84-28.663-62.173-28.663-11.167 0-21.994 1.1682-32.664 3.4954-7.4968 2.0053-26.17 9.0054-56.001 20.835-29.996 11.838-51.668 17.67-65.328 17.67-10.505 0-18.507-3.1643-24.339-9.6677-5.9974-6.3378-8.9962-17.505-9.3273-33.336z"/></glyph><glyph horiz-adv-x="556" unicode="ä"><path d="m174 359-124 22.003c14 50.666 38.165 88.168 72.328 112.5 34.172 24.33 85.004 36.5 152.34 36.5 61.161 0 106.83-7.1657 136.83-21.672 29.84-14.497 51.006-32.83 63.166-55.164 12.17-22.334 18.342-63.166 18.342-122.83l-2.0053-160.01c0-45.496 2.1708-79.163 6.5034-100.82 4.3325-21.672 12.501-44.834 24.496-69.504h-136c-3.4954 8.9962-7.9935 22.334-13.163 40.004-2.1708 8.1591-3.8358 13.494-4.8384 15.996-23.328-22.996-48.329-40.17-74.996-51.668s-54.998-17.33-85.169-17.33c-53.168 0-95.168 14.497-125.84 43.5-30.659 28.828-45.993 65.494-45.993 109.83 0 29.168 7.0001 55.338 21 78.335 14 22.831 33.501 40.501 58.834 52.662 25.167 12.17 61.492 22.84 108.99 32.002 64.003 12.004 108.51 23.337 133.17 33.667v13.835c0 26.666-6.4942 45.671-19.501 57.169-13.163 11.333-37.834 16.999-73.993 16.999-24.505 0-43.5-4.8292-57.169-14.662-13.835-9.6677-24.836-26.841-33.336-51.337zm184-111c-17.496-5.8319-45.33-12.832-83.495-21-37.999-8.1683-63.001-16.171-74.674-23.833-17.827-12.832-26.832-28.837-26.832-48.338 0-19.326 7.1657-35.828 21.506-49.828 14.331-14 32.498-21 54.667-21 24.661 0 48.329 8.1683 70.829 24.33 16.502 12.501 27.504 27.504 32.664 45.505 3.5046 11.664 5.3352 33.998 5.3352 66.827v27.338zm-243.49 338v118h118v-118h-118zm210.5 0v118h118v-118h-118z"/></glyph><glyph horiz-adv-x="777" unicode="Ó"><path d="m43.003 353.66c0 73 11.001 134.34 32.83 184 16.171 36.5 38.505 69.338 66.671 98.332 28.166 29.003 58.999 50.5 92.5 64.675 44.659 18.829 96.162 28.332 154.5 28.332 105.66 0 190-32.839 253.49-98.332 63.341-65.668 95.002-156.84 95.002-273.67 0-115.84-31.496-206.51-94.331-271.84-62.835-65.503-147-98.167-252.17-98.167-106.5 0-191.33 32.498-254.16 97.661-62.835 65.006-94.331 154.67-94.331 269zm149 4.8384c0-81.168 18.829-142.67 56.332-184.67 37.502-41.835 85.169-62.835 142.84-62.835 57.831 0 105.17 20.835 142.33 62.338 37.006 41.66 55.504 104 55.504 187.16 0 82.17-18.002 143.5-54.17 183.83-35.994 40.501-83.826 60.664-143.66 60.664-59.671 0-107.83-20.494-144.33-61.327-36.5-41.007-54.832-102.67-54.832-185.17zm112 422.5 67.996 146h153l-135-146h-85.997z"/></glyph><glyph horiz-adv-x="722" unicode="Â"><path d="m718 0h-156.16l-61.842 163h-287.16l-59.505-163h-153.33l278 716h153.16l286.84-716zm-265 284-99.5 265-96.667-265h196.17zm-257 497.01 102.5 144h126.33l101.16-144h-110l-56.507 73-52.496-73h-111z"/></glyph><glyph horiz-adv-x="548" unicode="±"><path d="m212 173v186h-188v128h188v186h125v-186h188v-128h-188v-186h-125zm-188-173v128h501v-128h-501z"/></glyph><glyph horiz-adv-x="583" unicode="~"><path d="m32.002 253v127c41.329 43.997 89.667 66 144.66 66 20.504 0 39.333-1.9961 56.663-5.9974 17.339-4.0014 48.338-14.837 93.172-32.498 44.668-17.67 75.161-26.501 91.001-26.501 18.333 0 39.498 5.5007 63.332 16.493 23.999 11.001 47.336 28.506 70.166 52.505v-132c-15.003-15.5-36.003-30.006-62.835-43.665-26.832-13.503-54.667-20.338-83.33-20.338-16.171 0-32.167 1.8305-47.667 5.6663-15.334 3.8358-40.004 12.998-73.506 27.338-50.169 21.331-89.502 31.992-118.16 31.992-45.671 0-90.164-21.994-133.5-66z"/></glyph><glyph horiz-adv-x="889" unicode="m"><path d="m61.998 519h126v-70.829c45.165 54.492 99.004 81.83 161.5 81.83 33.17 0 61.998-6.8345 86.337-20.504 24.496-13.66 44.493-34.329 60.002-61.998 22.831 27.669 47.492 48.338 73.827 61.998 26.335 13.669 54.501 20.504 84.498 20.504 38.008 0 70.166-7.6716 96.667-23.171 26.335-15.5 46.002-38.165 58.999-68.161 9.5021-22.003 14.175-57.831 14.175-107.34v-331.33h-137v296.16c0 51.503-4.6637 84.672-14.166 99.5-12.666 19.501-32.333 29.334-58.668 29.334-19.17 0-37.337-5.8319-54.336-17.496-16.833-11.838-29.168-29.003-36.665-51.503-7.4968-22.665-11.167-58.337-11.167-107.17v-248.83h-137v284c0 50.334-2.4928 83.008-7.3312 97.504-4.8292 14.662-12.335 25.664-22.665 32.83-10.164 7.1748-24.164 10.67-41.669 10.67-21.166 0-40.161-5.6663-56.994-16.999-16.999-11.498-29.003-27.835-36.334-49.332-7.3312-21.506-11.001-57.169-11.001-106.83v-251.84h-137v519z"/></glyph><glyph horiz-adv-x="277" unicode="\"><path d="m-1.9961 728h101.99l179-740h-103l-177.99 740z"/></glyph><glyph horiz-adv-x="722" unicode="K"><path d="m74.996 0v716h145.01v-317.18l292.16 317.18h194.34l-270.17-278.84 284.17-437.17h-187.01l-197 336.17-116.5-119.67v-216.5h-145.01z"/></glyph><glyph horiz-adv-x="332" unicode=":"><path d="m98.001 382v137h137v-137h-137zm0-382v137h137v-137h-137z"/></glyph><glyph horiz-adv-x="332" unicode=")"><path d="m33.004-210c27.163 58.006 46.158 102.33 57.325 133.17 11.001 30.999 21.341 66.671 30.834 107.01 9.3365 40.326 16.337 78.666 21 114.82 4.5073 36.334 6.8345 73.506 6.8345 111.5 0 77.498-8.3339 150.83-25.002 220-16.658 68.998-47.326 153-91.994 251.5h92.997c49.332-70.001 87.671-144.17 115-222.5 27.338-78.5 40.998-157.99 40.998-238.66 0-67.996-10.827-140.83-32.333-218.67-24.33-87.165-64.666-173.16-120.67-258.17h-94.993z"/></glyph><glyph horiz-adv-x="548" unicode="≈"><path d="m15.003 370v127c41.329 44.668 89.502 67.002 144.33 67.002 20.494 0 39.333-1.9961 56.663-5.9974 17.164-4.1669 44.162-13.503 81.002-28.166 36.665-14.837 60.83-23.668 72.668-26.998 11.664-3.1735 21.662-4.8384 30.162-4.8384 18.167 0 39.333 5.5007 63.166 16.668 23.833 11.167 47.17 28.837 70.001 53.333v-132c-15.003-15.665-35.838-30.337-62.67-44.171-26.832-13.825-54.501-20.826-83.164-20.826-16.337 0-32.167 1.9961-47.501 5.8319-15.5 3.8266-39.995 13.163-73.496 27.66-50.003 21.672-89.336 32.508-118 32.508-45.505 0-89.833-22.334-133.17-67.002zm0-235v127c41.329 43.334 89.502 64.997 144.33 64.997 20.494 0 39.333-1.9961 56.663-5.9974 17.164-3.8358 44.162-12.998 81.002-27.163 36.665-14.175 60.83-23.006 72.668-26.17 11.664-3.1643 21.662-4.6637 30.162-4.6637 18.167 0 39.333 5.6663 63.166 16.833 23.833 11.158 47.17 28.828 70.001 53.158v-132c-15.003-15.665-35.838-30.328-62.67-44.162s-54.501-20.835-83.164-20.835c-16.337 0-32.167 1.9961-47.501 5.9974-15.5 4.0014-39.995 13.338-73.496 27.669-50.003 21.497-89.336 32.333-118 32.333-45.505 0-89.833-22.334-133.17-67.002z"/></glyph><glyph horiz-adv-x="166" unicode="∕"><path d="m-90.67-26.004h-76.826l424 751h76.835l-424.01-751z"/></glyph><glyph horiz-adv-x="556" unicode="₰"><path d="m556 571.16c0-49.166-47.667-149.33-143.17-300.66l75.833-268.5c4.1669-14.994 6.3378-28.332 6.3378-39.995 0-60.664-19.17-105.66-57.5-135.34-32.333-24.496-75.667-36.665-130.33-36.665-39.167 0-74.168 3.1735-105 9.3365v121.67c28.672-12.666 56.001-19.004 82.005-19.004 45.496 0 68.492 22.5 68.833 67.333 0 7.4968-1.1682 14.837-3.6702 22.003l-34.669 123.5-76.164-120.83-60.996 46.995-24.008-40.998h-153.5l141.34 235.5 56.166-44.502 66.165 105.5-67.168 240.01c-2.3364 8.4994-3.4954 20.494-3.4954 36.159 0.33115 45.174 16.493 82.17 48.495 110.83 33.501 30.337 79.172 45.505 136.84 45.505 59.827 0 105.33-15.84 136.5-47.336 27.504-28 41.163-64.831 41.163-110.5zm-139.99-0.33115c0 30.834-13.669 46.167-40.842 46.167-28.166 0-42.166-15.665-42.166-46.83 0-14.34 1.3338-24.836 4.1669-31.67l24.339-86.163c36.334 57.831 54.501 97.33 54.501 118.5z"/></glyph><glyph horiz-adv-x="0" unicode="⁬"><path d="m16.999-134h-35v646l-96.998 178h229l-96.998-178v-646z"/></glyph><glyph horiz-adv-x="332" unicode="‹"><path d="m299 480-127-220.33 127-225.67h-107l-155 225.67 155 220.33h107z"/></glyph><glyph horiz-adv-x="552" unicode="‗"><path d="m-8.9962-198v88.996h570v-88.996h-570zm0-179v89.005h570v-89.005h-570z"/></glyph><glyph horiz-adv-x="556" unicode="ӿ"><path d="m547 0h-167.33l-106.5 151.17-106-151.17h-161.17l159.17 227h-127.17v91.001h118.84l-142.84 201h167.33l94.506-134.17 94 134.17h161.17l-142.17-201h117.17v-91.001h-118.84l159.83-227z"/></glyph><glyph horiz-adv-x="621" unicode="Ӯ"><path d="m-0.49672 716h162.83l166.67-370.67 142.66 370.67h150.84l-242.17-544.17c-26.335-59.009-53.168-103.84-80.496-134.68-27.338-30.824-62.504-46.158-105.84-46.158-42.663 0-75.998 2.8332-99.997 8.3339v107.66c20.504-1.3338 39.002-1.9961 55.504-1.9961 33.326 0 57.325 6.163 71.831 18.333 14.331 12.335 28.332 38.836 41.495 79.337l-263.33 513.33zm164.5 64.997v91.001h315v-91.001h-315z"/></glyph><glyph horiz-adv-x="709" unicode="ӝ"><path d="m287 0v221c-17.836-1.3338-30.337-5.3352-37.337-12.004-7.0001-6.6689-19.335-26.335-36.831-59.165l-65.337-149.84h-147.5l73.165 143c37.171 71.335 75.667 112.33 115.67 122.66-29.84 11.507-52.671 41.007-68.502 88.839-12.17 35.663-23.006 56.994-33.004 63.994-9.8332 7.0001-32.995 10.505-69.329 10.505v90.495c26.998 1.6741 45.836 2.502 56.497 2.502 30.171 0 56.001-6.6689 77.498-19.998 21.506-13.503 41.669-46.83 60.508-99.997 14.497-41.504 26.326-67.674 34.991-78.666 8.8398-10.836 22.003-16.668 39.508-17.339v213h136.99v-213c17.505 0 30.834 5.6663 39.673 17.164 8.9962 11.333 20.66 37.668 34.826 78.841 18.673 52.496 38.34 85.666 59.34 99.5 20.835 13.66 47.832 20.494 80.662 20.494 9.3365 0 27.504-0.82787 54.501-2.502v-90.495c-36.003 0-58.999-3.5046-69.164-10.505-9.9988-7.0001-21-28.332-33.004-63.994-15.996-47.832-38.827-77.332-68.667-88.839 40.004-10.33 78.5-51.328 115.67-122.66l73.165-143h-147.5l-64.831 149.84c-11.673 26.666-22.5 44.834-32.508 54.501-9.8332 9.8332-23.999 15.334-42.166 16.668v-221h-136.99zm-95.499 586v118h118v-118h-118zm210.5 0v118h118v-118h-118z"/></glyph><glyph horiz-adv-x="580" unicode="ӌ"><path d="m516 0h-80v-137h-111v248h53.995v96.502c-53.499-14.331-94.165-21.497-122.17-21.497-37.834 0-73 7.828-105.5 23.493-37.502 17.505-63.001 42-76.835 73.174-12.335 28.332-18.498 65.825-18.498 112.33v124h139v-124.16c0-25.673 1.8305-44.502 5.3352-56.175 5.8319-17.992 17.33-31.992 34.163-42.332 16.999-10.164 37.834-15.334 62.504-15.334 24.33 0 51.668 5.5007 81.996 16.668v221.34h137v-519z"/></glyph><glyph horiz-adv-x="610" unicode="һ"><path d="m207 716v-265.34c44.493 52.836 97.826 79.337 159.66 79.337 31.836 0 60.508-5.8319 86.006-17.505 25.498-11.829 44.668-26.666 57.666-44.999 12.998-18.167 21.828-38.33 26.501-60.499 4.8292-22.168 7.1657-56.497 7.1657-103v-304h-137v273.67c0 54.336-2.6676 88.83-7.828 103.5-5.3352 14.662-14.672 26.335-28 34.835-13.338 8.665-30.006 12.998-50.169 12.998-23.006 0-43.5-5.5007-61.667-16.668-18.167-11.001-31.33-27.669-39.664-50.003-8.4994-22.159-12.666-55.164-12.666-98.664v-259.66h-137v716h137z"/></glyph><glyph horiz-adv-x="722" unicode="Ҫ"><path d="m671 218.5c-35.497-129.51-111.5-204.83-227.66-225.67 8.4994-35.838 12.666-65.668 12.666-89.336 0-36.5-11.167-64.5-33.336-84.167-22.334-19.501-51.999-29.334-88.996-29.334-30.337 0-61.832 7.0001-94.671 21v66.165c23.668-7.4968 45.836-11.167 66.34-11.167 46.499 0 69.66 25.342 69.66 76.173 0 16.668-1.159 31.661-3.4954 44.834-101.84 0-182.33 35.828-241.5 107.66-55.338 66.505-82.998 152.17-82.998 257.01 0 111.16 27.66 200.67 82.998 268.16 59.662 72.834 143.66 109.17 252.16 109.17 87.671 0 158.84-25.839 213.51-77.672 32.664-30.999 56.994-74.996 73.331-132.16l-143-34.163c-8.4994 37.328-26.17 66.662-53.002 88.002-26.998 21.331-59.662 31.992-98.001 31.992-119.33 0-178.99-80.828-178.99-242.67 0-167.5 58.668-251.33 176-251.33 82.833 0 135.84 50.666 159.01 152.01l139.99-44.502z"/></glyph><glyph horiz-adv-x="496" unicode="ҙ"><path d="m458 136.33c0-40.336-18.839-74.996-56.507-103.83-27.66-21.166-63.829-34.669-108.66-40.501 8.1683-35.166 12.16-64.5 12.16-87.828 0-36.84-11.158-65.006-33.326-84.672-22.334-19.666-51.999-29.5-89.005-29.5-30.328 0-61.832 7.0001-94.662 21v66.165c23.668-7.4968 45.827-11.167 66.331-11.167 46.499 0 69.67 25.673 69.67 76.835 0 17.836-1.1682 33.17-3.3391 46.167-112.83 4.4981-182.33 53.499-208.66 147.17l125 22.831c20.163-50.666 53.499-75.998 99.997-75.998 22.168 0 41.329 5.6663 57.666 17.164 18.167 12.666 27.338 28.672 27.338 47.842 0 43.325-29.168 64.997-87.506 64.997h-23.502v88.996c40.501 0 68.17 9.1709 82.842 27.338 9.4929 11.829 14.166 25.333 14.166 40.667 0 20.163-6.6689 36.169-20.172 48.164-13.494 11.838-30.502 17.836-50.997 17.836-23.833 0-42.497-5.6663-56.166-16.999-11.673-9.6677-22.168-26.335-31.67-50.003l-115.99 24.836c11.664 45.33 37.493 80 77.498 104 36.169 21.497 79.163 32.167 128.84 32.167 53.333 0 98.001-11.498 133.66-34.669 42-26.666 63.001-65.328 63.001-116.17 0-47.998-30.834-87-92.5-116.5 76.329-20.835 114.5-63.001 114.5-126.33z"/></glyph><glyph horiz-adv-x="0" unicode="҈"><path d="m419 474h-44.006c0 48.669-19.501 73-58.494 73-39.002 0-58.503-24.33-58.503-73h-43.997c0 79.337 34.163 119 102.5 119 68.327 0 102.5-39.664 102.5-119zm58.999-247h-44.006c0 48.669-19.492 73-58.494 73s-58.503-24.33-58.503-73h-43.997c0 79.328 34.163 119 102.5 119 68.327 0 102.5-39.673 102.5-119zm-380 366h-43.997c0 48.669-19.501 73-58.503 73s-58.503-24.33-58.503-73h-43.997c0 79.328 34.163 119 102.5 119 68.336 0 102.5-39.673 102.5-119zm321-638h-44.006c0 48.669-19.501 73-58.494 73-39.002 0-58.503-24.33-58.503-73h-43.997c0 79.328 34.163 119 102.5 119 68.327 0 102.5-39.673 102.5-119zm-632 519h-43.997c0 48.669-19.501 73-58.503 73s-58.503-24.33-58.503-73h-43.997c0 79.337 34.163 119 102.5 119 68.336 0 102.5-39.664 102.5-119zm-58.999-247h-43.997c0 48.669-19.501 73-58.503 73s-58.503-24.33-58.503-73h-43.997c0 79.328 34.163 119 102.5 119 68.336 0 102.5-39.673 102.5-119zm370-391h-43.997c0 48.669-19.501 73-58.503 73s-58.503-24.33-58.503-73h-43.997c0 79.337 34.163 119 102.5 119 68.336 0 102.5-39.664 102.5-119zm-311 119h-43.997c0 48.669-19.501 73-58.503 73s-58.503-24.33-58.503-73h-43.997c0 79.328 34.163 119 102.5 119 68.336 0 102.5-39.673 102.5-119z"/></glyph><glyph horiz-adv-x="646" unicode="ѷ"><path d="m641 470.5-62.504-101.99c-22.5 13.66-41.329 20.494-56.663 20.494-19.832 0-37.834-20.494-54.17-61.492l-130.32-327.5h-123.51l-208.82 519h143.99l126-353.33 87 240.33c12.335 34.172 24.505 59.671 36.5 76.173 24.164 31.827 54.667 47.832 91.838 47.832 43.831 0 94.165-19.832 150.66-59.505zm-192 115.51h-85.997l-126 146h144l67.996-146zm-184 0h-88.002l-120 146h139.99l68.005-146z"/></glyph><glyph horiz-adv-x="667" unicode="Ѧ"><path d="m666 0h-156.67l-88.168 258h-39.167v-258h-107v258h-36.996l-84.001-258h-154l255.17 716h155.5l255.33-716zm-280.83 363-56.672 166-54.832-166h111.5z"/></glyph><glyph horiz-adv-x="556" unicode="ѕ"><path d="m22.996 146 138.01 21c5.8319-26.501 17.661-46.664 35.663-60.333 17.836-13.835 43.003-20.669 75.17-20.669 35.497 0 62.164 6.5034 80.165 19.501 12.004 9.1709 18.002 21.506 18.002 36.831 0 10.339-3.3391 19.004-9.8332 25.839-6.8345 6.5034-22.168 12.666-45.836 18.167-110.83 24.496-181 46.83-210.66 67.002-41.163 28.166-61.667 67.168-61.667 117 0 45.165 17.836 82.998 53.333 113.67 35.497 30.668 90.495 46.002 165 46.002 70.994 0 123.83-11.664 158.33-34.835 34.494-23.337 58.328-57.666 71.325-103.17l-129-23.999c-5.5007 20.338-16.162 36.003-31.661 46.839-15.5 10.827-37.668 16.162-66.505 16.162-36.334 0-62.329-4.9948-78.16-15.168-10.505-7.1657-15.674-16.493-15.674-27.826 0-9.8332 4.5073-18.167 13.669-25.002 12.501-9.1709 55.338-22.003 128.67-38.671 73.331-16.668 124.5-36.996 153.5-61.161 28.837-24.339 43.169-58.503 43.169-102.17 0-47.501-19.832-88.499-59.662-122.67-39.673-34.163-98.507-51.328-176.5-51.328-70.672 0-126.66 14.331-168 42.828-41.163 28.506-68.17 67.168-80.837 116.17z"/></glyph><glyph horiz-adv-x="875" unicode="ф"><path d="m369 716h137v-263.67c16.502 25.498 36.334 44.659 59.33 57.5 22.996 12.832 49.332 19.16 78.831 19.16 55.504 0 100.83-26.998 136-80.828 35.166-54.005 52.836-118.34 52.836-193.34 0-75.336-19.666-138.67-59.165-190.34-39.333-51.668-86.006-77.498-139.84-77.498-24.33 0-47.17 6.163-68.667 18.333-21.331 12.16-41.163 30.328-59.33 54.501v-256.83h-137v256.83c-19.832-24.174-40.998-42.341-63.498-54.501-22.5-12.17-46.499-18.333-71.831-18.333-55.67 0-101.84 25.995-138.17 77.829-36.334 51.834-54.501 117-54.501 195.67 0 77.829 20.835 142.33 62.338 193.16 41.495 50.84 86.494 76.339 134.83 76.339 26.161 0 50.169-6.1722 71.997-18.498 21.672-12.501 41.338-30.999 58.834-55.67v260.17zm-91.498-291c-25.167 0-47.336-15.334-66.165-45.836-18.839-30.493-28.341-70.663-28.341-120.67 0-50.334 8.8398-90.661 26.335-121 17.67-30.337 39.498-45.496 65.668-45.496 26.501 0 49.001 15.159 67.333 45.496 18.498 30.337 27.669 71.831 27.669 124.5 0 56.994-9.9988 98.498-30.006 124.33-19.998 25.839-40.832 38.671-62.495 38.671zm320.84-1.0026c-28 0-50.675-16.327-68.17-49.001-17.496-32.83-26.17-73.662-26.17-122.83s9.3365-88.168 28-117c18.507-28.828 40.667-43.16 66.34-43.16 25.498 0 47.492 16.327 66 48.826 18.498 32.508 27.66 71.004 27.66 115.18 0 47.161-8.4994 87-25.333 119.5-16.833 32.333-39.664 48.495-68.327 48.495z"/></glyph><glyph horiz-adv-x="416" unicode="г"><path d="m66 519h351v-111h-214v-408h-137v519z"/></glyph><glyph horiz-adv-x="610" unicode="Т"><path d="m234 0v595h-212v121.01h568v-121.01h-211v-595h-145z"/></glyph><glyph horiz-adv-x="718" unicode="Б"><path d="m75.998 716h535v-121.01h-390v-166h193.16c53.168 0 97.504-6.5034 132.5-19.501 35.166-12.998 65.162-36.996 89.998-72.162 24.836-35 37.337-76.173 37.337-123.33 0-48.338-12.501-89.833-37.668-124.34-25.002-34.338-53.499-57.997-85.666-70.663-32.002-12.666-77.672-19.004-136.84-19.004h-337.83v716zm145.01-595.01h140.5c44.834 0 76.495 2.1708 94.662 6.5034s34.172 14.166 47.667 29.665c13.503 15.334 20.172 34.338 20.172 56.838 0 32.83-11.838 56.663-35.341 71.666-23.659 14.828-63.829 22.334-120.83 22.334h-146.83v-187.01z"/></glyph><glyph horiz-adv-x="667" unicode="Ѐ"><path d="m73 0v716h530v-121.01h-385v-159h358.01v-121h-358.01v-194.01h399v-121h-544zm347 781h-85.997l-135 146h153l67.996-146z"/></glyph><glyph horiz-adv-x="610" unicode="ò"><path d="m40.004 265.84c0 45.662 11.158 89.833 33.667 132.5 22.5 42.838 54.326 75.336 95.499 97.836 41.163 22.5 87 33.832 137.83 33.832 78.5 0 142.67-25.498 192.83-76.504 50.169-51.162 75.17-115.5 75.17-193.5 0-78.666-25.333-143.83-75.833-195.5-50.666-51.668-114.34-77.498-191.16-77.498-47.501 0-92.841 10.827-136 32.333-43.003 21.497-75.833 53.002-98.332 94.662-22.509 41.504-33.667 92.169-33.667 151.84zm141-7.3404c0-51.493 12.17-91.001 36.5-118.33 24.505-27.504 54.501-41.163 90.33-41.163 35.672 0 65.668 13.66 89.842 41.163 24.164 27.329 36.325 67.168 36.325 119.33 0 50.831-12.16 89.998-36.325 117.34-24.174 27.494-54.17 41.163-89.842 41.163-35.828 0-65.825-13.669-90.33-41.163-24.33-27.338-36.5-66.836-36.5-118.34zm217 327.5h-86.006l-135 146h153l68.005-146z"/></glyph><glyph horiz-adv-x="556" unicode="á"><path d="m174 359-124 22.003c14 50.666 38.165 88.168 72.328 112.5 34.172 24.33 85.004 36.5 152.34 36.5 61.161 0 106.83-7.1657 136.83-21.672 29.84-14.497 51.006-32.83 63.166-55.164 12.17-22.334 18.342-63.166 18.342-122.83l-2.0053-160.01c0-45.496 2.1708-79.163 6.5034-100.82 4.3325-21.672 12.501-44.834 24.496-69.504h-136c-3.4954 8.9962-7.9935 22.334-13.163 40.004-2.1708 8.1591-3.8358 13.494-4.8384 15.996-23.328-22.996-48.329-40.17-74.996-51.668s-54.998-17.33-85.169-17.33c-53.168 0-95.168 14.497-125.84 43.5-30.659 28.828-45.993 65.494-45.993 109.83 0 29.168 7.0001 55.338 21 78.335 14 22.831 33.501 40.501 58.834 52.662 25.167 12.17 61.492 22.84 108.99 32.002 64.003 12.004 108.51 23.337 133.17 33.667v13.835c0 26.666-6.4942 45.671-19.501 57.169-13.163 11.333-37.834 16.999-73.993 16.999-24.505 0-43.5-4.8292-57.169-14.662-13.835-9.6677-24.836-26.841-33.336-51.337zm184-111c-17.496-5.8319-45.33-12.832-83.495-21-37.999-8.1683-63.001-16.171-74.674-23.833-17.827-12.832-26.832-28.837-26.832-48.338 0-19.326 7.1657-35.828 21.506-49.828 14.331-14 32.498-21 54.667-21 24.661 0 48.329 8.1683 70.829 24.33 16.502 12.501 27.504 27.504 32.664 45.505 3.5046 11.664 5.3352 33.998 5.3352 66.827v27.338zm-169 338 67.996 146h153l-135-146h-85.997z"/></glyph><glyph horiz-adv-x="722" unicode="Ð"><path d="m73 716h263.67c60.499 0 106.34-4.6728 137.66-14.175 42.332-12.666 78.335-35.166 108.33-67.158 30.006-32.002 52.505-70.838 67.674-116.51 15.159-45.496 22.665-101.83 22.665-169 0-58.834-8.3339-112-25.167-159.34-16.668-47.501-41.338-87-74.002-118.5-25.002-23.833-58.668-42.497-101-56.166-31.836-10.164-74.664-15.168-128.33-15.168h-271.5v313h-74.002v91.001h74.002v312zm145-121.01v-191h153.01v-91.001h-153.01v-192h108.18c47.832 0 82.161 3.8358 103.33 11.673 27.835 9.8332 49.166 27.66 63.838 53.664 20.494 36.831 30.668 92.997 30.668 168.5 0 53.664-4.3325 95.168-12.841 124.17-8.665 29.159-21.331 52.662-38.165 70.663-16.668 17.836-38.496 30.337-65.494 37.502-20.669 5.1604-62.173 7.828-124.17 7.828h-65.337z"/></glyph><glyph horiz-adv-x="610" unicode="¿"><path d="m372 519v-137h-124v137h124zm-124-184h124c0.67149-21.497 1.0026-33.998 1.0026-37.171 0-37.162-7.1657-69.329-21.166-96.162-14.166-26.998-41.835-57.169-82.833-90.836-41.173-33.667-65.668-57.169-73.837-70.498-8.1683-13.338-12.17-28.506-12.17-45.505 0-25.167 10.67-47.161 32.167-66.165 21.506-19.17 50.169-28.663 86.337-28.663 34.835 0 63.663 9.6677 86.834 29.159 22.996 19.335 39.167 50.003 48.669 91.838l125.99-15.996c-5.5007-40.842-16.999-74.674-34.66-101.84-23.999-36.831-55.338-64.169-94-81.665-38.505-17.67-81.002-26.501-127.67-26.501-78.335 0-141 20.669-187.67 61.832-46.664 41.163-70.001 88.83-70.001 142.84 0 20.835 4.1669 41.163 12.501 60.996 8.1683 19.666 21.166 39.498 39.002 59.505 17.661 19.832 45.827 45.827 84.498 77.829 28.332 22.831 46.002 41.835 53.002 57.003 7.0001 15.168 10.33 41.835 9.9988 80z"/></glyph><glyph horiz-adv-x="736" unicode="®"><path d="m370 730c64.169 0 125.66-15.996 184.5-48.164 58.999-32.002 105.33-77.994 139-137.83 33.667-59.836 50.5-122.5 50.5-188 0-65.172-16.493-127.17-49.497-186.34-33.161-58.999-79.163-105-138.16-138.17-59.174-32.995-121.17-49.497-186.34-49.497-65.172 0-127.17 16.502-186.34 49.497-58.999 33.17-105 79.172-138.17 138.17-32.995 59.165-49.497 121.16-49.497 186.34 0 65.503 16.833 128.16 50.5 188 33.667 59.836 80 105.83 139 137.83 58.834 32.167 120.34 48.164 184.5 48.164zm0.33115-73.993c-51.503 0-100.83-12.832-148-38.505-47.17-25.664-84.341-62.495-111.5-110.67-27.163-47.998-40.832-98.498-40.832-150.99 0-52.34 13.329-102.33 39.83-149.67 26.501-47.501 63.507-84.498 111-111.16 47.501-26.666 97.339-40.004 149.5-40.004 52.33 0 102.17 13.338 149.5 40.004 47.501 26.666 84.498 63.663 111.16 111.16 26.666 47.336 39.995 97.33 39.995 149.67 0 52.496-13.66 103-40.832 150.99-27.163 48.173-64.334 85.004-111.66 110.67-47.501 25.673-96.833 38.505-148.17 38.505zm-169.34-500v396.01h80.34c75.327 0 117.66-0.34035 126.66-1.0026 26.666-2.1708 47.336-7.4968 62.164-15.831 14.672-8.1683 26.998-20.835 37.006-38.008 9.8332-16.999 14.828-35.994 14.828-56.663 0-28.663-9.3273-53.002-28-73.331-18.664-20.338-44.834-32.839-78.5-37.834 12.004-4.4981 21.331-9.5021 27.835-14.837 6.5034-5.3352 15.5-15.5 26.832-30.328 2.9987-4.0014 12.666-20.007 29.334-48.338l46.499-79.834h-99.997l-32.83 64.5c-22.168 43.169-40.501 70.498-55.007 81.665-14.662 11.167-32.995 16.833-55.329 16.833h-20.835v-163h-81.002zm81.002 226h32.498c46.333 0 75.17 1.8397 86.337 5.3352 11.167 3.5046 19.998 9.6677 26.501 18.498 6.4942 8.8398 9.6677 18.839 9.6677 30.171 0 10.836-3.1735 20.669-9.5021 29.168-6.3378 8.4994-15.334 14.662-26.998 18.333-11.673 3.661-40.336 5.5007-86.006 5.5007h-32.498v-107.01z"/></glyph><glyph horiz-adv-x="389" unicode="{"><path d="m29.003 201v117c23.833 1.3338 41.66 4.8292 53.83 10.827 12.004 5.8411 22.334 15.674 31.165 29.5 8.8398 13.835 14.837 31.174 18.167 52.008 2.502 15.665 3.8358 42.828 3.8358 81.665 0 63.166 2.9987 107.16 8.8306 132.16 5.8319 25.002 16.337 44.999 31.67 60.168 15.334 15.168 37.668 26.998 66.827 35.828 19.841 5.8411 51.171 8.8398 93.834 8.8398h25.839v-117c-36.334 0-59.505-1.9961-69.835-6.163-10.33-4.0014-17.836-10.164-22.831-18.498-4.8384-8.3339-7.3312-22.5-7.3312-42.672 0-20.494-1.3338-59.496-4.0014-116.66-1.6741-32.333-5.8319-58.328-12.666-78.5-6.8345-19.998-15.5-36.5-26.17-49.497-10.505-12.998-26.666-26.501-48.504-40.501 19.335-11.001 35-23.999 47.336-38.836 12.335-14.828 21.672-32.83 28.166-53.995 6.6689-21.166 10.836-49.672 12.832-85.169 2.0053-53.995 3.0079-88.665 3.0079-103.67 0-21.497 2.6584-36.5 7.828-44.999 5.1696-8.3339 12.998-14.828 23.668-19.17 10.496-4.4981 33.336-6.6597 68.502-6.6597v-117h-25.839c-43.997 0-77.663 3.5046-101.16 10.505-23.328 7.0001-43.169 18.664-59.165 35-16.162 16.162-26.998 36.334-32.498 60.333-5.5007 23.833-8.3339 61.667-8.3339 113.16 0 59.836-2.6676 98.838-7.8372 116.67-7.1657 26.161-17.992 44.834-32.498 56.001-14.497 11.333-36.665 17.661-66.662 19.326z"/></glyph><glyph horiz-adv-x="277" unicode="j"><path d="m68.998 589v127h137v-127h-137zm137-70.001v-502.5c0-66-4.3325-112.67-12.998-139.84-8.4994-27.163-25.167-48.504-49.838-63.663-24.496-15.334-55.835-23.006-94-23.006-13.669 0-28.332 1.1682-44.162 3.6702-15.84 2.3364-32.839 5.9974-51.006 11.001l23.502 116.66c6.5034-1.1682 12.666-2.3364 18.498-3.1643 5.6663-0.83707 11.001-1.1682 16.005-1.1682 14 0 25.664 2.9987 34.66 8.9962 9.0054 6.0066 15.003 13.338 17.836 21.837 2.9987 8.4994 4.4981 33.832 4.4981 76.164v495h137z"/></glyph><glyph horiz-adv-x="667" unicode="Y"><path d="m261 0v301.34l-262.5 414.67h169.5l169.34-283.51 164.83 283.51h166.34l-262.51-415.67v-300.33h-145z"/></glyph><glyph horiz-adv-x="722" unicode="H"><path d="m73 0v716h145v-282.01h282v282.01h145.01v-716h-145.01v313h-282v-313h-145z"/></glyph><glyph horiz-adv-x="556" unicode="7"><path d="m42 580v127h470v-99.997c-38.836-38.165-78.169-92.832-118.33-164.17-40.004-71.335-70.672-147.17-91.673-227.5-21-80.34-31.33-152.17-30.999-215.34h-132c2.3364 99.169 22.665 200.34 61.17 303.5 38.661 103 89.998 195.34 154.5 276.51h-312.67z"/></glyph><glyph horiz-adv-x="722" unicode="&amp;"><path d="m706 86.834-83.164-105.84c-40.667 19.841-79.834 47.17-117.34 82.005-28.828-26.004-59.662-45.165-92.16-57.5s-71.169-18.498-116.17-18.498c-89.005 0-156 25.167-201 75.327-34.835 38.671-52.174 83.339-52.174 133.84 0 46.002 13.669 87.331 41.173 124 27.329 36.665 68.327 68.502 122.83 95.499-24.496 29.003-42.994 56.672-55.329 83.008-12.501 26.326-18.664 51.162-18.664 74.664 0 43.334 17.33 80.165 51.999 110.33 34.494 30.171 84.001 45.34 148 45.34 61.667 0 110-15.84 144.83-47.336 34.835-31.67 52.174-70.166 52.174-115.84 0-28.994-8.4994-56.497-25.673-82.492-17.164-26.004-51.668-55.504-103.67-88.334l98.507-132.5c11.664 20.669 21.662 47.832 30.162 81.168l124.34-27.835c-12.335-43.997-23.171-76.329-32.333-96.667-9.0054-20.329-18.839-37.493-29.334-51.162 15.334-14.331 35.166-30.006 59.496-47.17 24.339-17.164 42.166-28.497 53.499-33.998zm-373.5 390 36.831 28.497c27.172 21.166 40.667 42.166 40.667 63.001 0 17.67-6.4942 32.673-19.666 44.999-12.998 12.501-30.668 18.673-52.993 18.673-21.672 0-38.671-5.5007-51.006-16.337-12.17-11.001-18.333-23.668-18.333-37.999 0-16.999 10.33-37.502 30.999-61.667l33.501-39.167zm-53.664-149.33c-31.339-16.005-54.832-35.341-70.498-57.84-15.509-22.5-23.337-45.496-23.337-68.833 0-29.665 9.6677-53.995 29.003-72.668 19.16-18.829 44.999-28.166 77.498-28.166 21.331 0 42 4.1669 61.667 12.666 19.832 8.4994 41.329 22.5 64.666 42.166l-139 172.68z"/></glyph><glyph horiz-adv-x="583" unicode="−"><path d="m40.998 289v128h501v-128h-501z"/></glyph><glyph horiz-adv-x="722" unicode="₭"><path d="m720 0h-187l-168.83 289h-73.671l-70.498-72.668v-216.33h-145.01v289h-58.999v126h58.999v301h145.01v-301h15.996l275 301h194.01l-269.17-278.84 14.331-22.168h254.84v-126h-173.01l188-289z"/></glyph><glyph horiz-adv-x="1000" unicode="—"><path d="m0 208v103h1e3v-103h-1e3z"/></glyph><glyph horiz-adv-x="667" unicode="Ӽ"><path d="m665-73.837c0-42.828-15.334-76.826-46.002-101.99-28-22.84-63.332-34.172-105.66-34.172-33.667 0-68.667 4.8384-105.33 14.672l23.999 107.66c14.662-2.8332 26.17-4.3325 34.329-4.3325 34.338 0 51.503 11.333 51.503 34.172 0 14-13.329 41.329-39.995 81.83l-144.17 219.33-159.67-243.33h-174l247.84 373.84-224.84 342.17h169.5l140.5-213.84 141.84 213.84h169.16l-225.67-343.68 189-287.67c38.496-58.328 57.666-111.16 57.666-158.5z"/></glyph><glyph horiz-adv-x="610" unicode="ӫ"><path d="m575 260c0-78.326-25.002-143.33-75.17-195.16-50.16-51.834-114-77.829-191.83-77.829-48.835 0-93.834 10.661-135.17 31.827-43.997 22.84-77.166 54.842-99.335 96.171-22.334 41.163-33.492 91.498-33.492 150.84 0 47.326 11.158 91.663 33.667 132.99 23.493 42.838 55.495 75.336 96.493 97.67 40.832 22.334 86.337 33.501 136.84 33.501 78.831 0 143.17-25.333 192.99-75.833 50.003-50.5 75.005-115.33 75.005-194.17zm-145 43.003c-5.8411 33.667-19.004 60.83-39.508 81.665-22.325 22.168-50.16 33.336-83.164 33.336-35.828 0-65.834-13.669-90.164-41.163-16.999-18.839-28-43.5-33.17-73.837h246.01zm0.49672-84.001h-247c5.1696-35 18.167-63.166 39.002-84.663 22.334-23.502 50.666-35.332 84.829-35.332 33.998 0 62.338 11.829 84.663 35.332 20.504 21.497 33.336 49.663 38.505 84.663zm-290 367v118h118v-118h-118zm210.5 0v118h118v-118h-118z"/></glyph><glyph horiz-adv-x="726" unicode="Ӛ"><path d="m686 354c0-150.33-50.997-257.66-153-322-47.501-30.006-104.84-44.999-172-44.999-75.161 0-136.66 19.666-184.66 58.834-88.839 73.165-133.33 176.16-133.33 309 0 14.662 1.8305 35.663 5.326 63.166h484.67c-5.8319 54.005-22.665 97.504-50.334 130.33-31.165 37.162-72.668 55.67-124.34 55.67-78.491 0-129.5-39.333-153.33-118l-143 32.664c16.005 69.495 51.171 122.5 105.5 159 50.84 34.172 113 51.337 186.5 51.337 106.67 0 189.84-36.334 249.5-109.17 55.007-67.499 82.502-156.16 82.502-265.84zm-153-56.994h-337c8.1683-63.672 27.329-110.5 57.666-140.67 30.162-30.162 66-45.33 107.33-45.33 46.002 0 84.001 14.672 113.84 44.006 29.996 29.5 49.332 76.826 58.162 142zm-326.5 484v118h118v-118h-118zm210.5 0v118h118v-118h-118z"/></glyph><glyph horiz-adv-x="722" unicode="Ӊ"><path d="m725 121-95.002-277h-120l59.993 156h-70.001v313h-282v-313h-145v716h145v-282.01h282v282.01h145.01v-595.01h80z"/></glyph><glyph horiz-adv-x="702" unicode="Ҹ"><path d="m627 0h-145v288.5c-29.5-13.007-58.172-22.665-86.172-29.168l-5.8319-1.4994v-147.84h-88.996v139.01c-160 4.1669-240.01 79.328-240.01 225.49v241.51h145.01v-171c0-49.506 0.66229-78.335 1.9961-86.503 4.5073-32.664 18.002-56.166 40.336-70.838 12.998-8.8306 30.668-14.662 52.671-17.661v198h88.996v-196.5c36.996 5.5007 67.664 17.33 92.004 35.663v308.84h145v-716z"/></glyph><glyph horiz-adv-x="921" unicode="ҧ"><path d="m900 44.337c0-77.166-21.837-138.34-65.337-183.5-45.33-47.17-108.17-70.838-188.5-70.838-65.006 0-115.84 8.665-152.17 25.839-46.333 21.662-81.168 60.83-105 117.33l137 22.84c12.666-36.003 50.666-54.005 113.83-54.005 79.503 0 119.17 47.501 119.17 142.34 0 95.83-39.664 143.66-119.17 143.66-39.664 0-77.663-7.1657-113.83-21.497v-166.5h-137v408h-185.99v-408h-137v519h460v-235.17c40.336 10.836 80.331 16.171 120.17 16.171 80.331 0 143.17-23.668 188.33-71.169 43.665-46.002 65.503-107.49 65.503-184.5z"/></glyph><glyph horiz-adv-x="903" unicode="Җ"><path d="m892-156h-120v156h-49.497l-87 185.33c-1.3338 2.6676-4.0014 7.6716-8.3339 15.168-2.9987 5.5007-8.8306 16.833-17.836 33.832-14.497 26.998-25.664 45.165-33.667 54.17-14.662 16.999-32.664 25.498-53.664 25.498v-314h-141v314c-21.506 0-39.673-8.4994-54.667-25.498-8.1683-9.0054-19.17-27.172-33.17-54.17-9.5021-18.333-15.5-29.5-18.167-33.832-3.1643-5.1696-5.9974-10.164-8.1683-15.168l-85.997-185.33h-169.83l97.661 196.66c24.339 49.001 43.675 83.173 58.006 102.84 26.998 36.831 57.5 60.158 91.332 69.826-37.171 20.835-64.997 57.003-83.67 108.84-14.994 42-23.493 65.162-25.498 69.329-12.998 28.341-27.835 47.17-44.502 56.341-13.66 7.4968-36.159 11.158-67.83 11.158-3.8358 0-9.9988-0.16557-18.498-0.49672v106.5c10.836-0.33115 17.836-0.49672 21-0.49672 72.328 0 123.66-11.673 153.83-35 27.835-21.166 55.173-67.002 82.17-137.5 18.498-47.832 30.502-76.173 35.672-85.335 18.158-31.505 41.66-48.338 70.332-50.666v304h141v-304c29.003 2.3272 52.505 18.995 70.332 50.169 5.1696 8.4994 17.174 36.996 35.672 85.832 26.998 69.835 54.336 115.5 82.161 136.99 30.502 23.668 81.839 35.506 153.84 35.506 3.1643 0 10.33 0.16557 21 0.49672v-106.5l-20.835 0.49672c-47.501 1.0026-79.834-13.825-96.998-44.493-8.4994-15.003-21.166-45.671-38.165-92.335-10.836-29.334-20.835-50.5-30.337-63.498-11.664-16.833-29.334-32.002-53.168-45.34 34.172-9.9988 64.666-33.161 91.332-69.164 14-19.501 33.17-53.83 57.5-103l37.668-76.173h60.002v-277z"/></glyph><glyph horiz-adv-x="0" unicode="҅"><path d="m63.001 566-23.337-45.008c-36.5 15.334-61.501 32.673-75.161 52.008-13.669 19.326-20.504 48.329-20.504 87.165v67.83h112v-94h-51.668c0-19.832 5.1696-34.504 15.168-44.162 7.1657-6.8345 21.662-14.837 43.5-23.833z"/></glyph><glyph horiz-adv-x="814" unicode="Ѵ"><path d="m810 621.17-67.839-70.332c-33.161 34.835-60.168 52.496-81.002 53.168-23.162 0.66229-39.498-12.501-49.332-39.673l-202-564.33h-154.17l-255.66 716h156.67l181.33-528.5 150.17 455.16c9.9988 30.502 29.831 53.499 59.496 68.833 24.008 12.004 51.006 17.836 81.002 17.505 61.998-0.67149 122.51-36.665 181.34-107.83z"/></glyph><glyph horiz-adv-x="702" unicode="ѣ"><path d="m663 150.84c0-100.5-68.833-150.84-206.33-150.84h-294.67v428h-149.01v91.001h149.01v197h136.99v-197h151v-91.001h-151v-125h138.01c49.166 0 85.16-2.502 107.66-7.3312 39.002-8.8306 69.007-26.998 89.502-54.667 19.17-25.664 28.837-55.835 28.837-90.164zm-141 2.6584c0 29.84-15.831 49.341-47.667 58.668-16.327 4.4981-44.834 6.8345-85.5 6.8345h-89.833v-131h128.67c62.835 0 94.331 21.828 94.331 65.494z"/></glyph><glyph horiz-adv-x="610" unicode="ђ"><path d="m207 659h167v-71.997h-167v-134.67c22.334 25.995 46.83 45.496 73.662 58.328s56.001 19.335 87.506 19.335c41.826 0 76.826-9.3365 104.83-28 28-18.664 46.839-42.166 56.507-70.332 9.6585-28.166 14.497-70.672 14.497-127.5v-329.34c0-62.329-11.001-108.84-32.839-139.16-21.994-30.502-59.496-45.671-112.5-45.671-27.835 0-63.498 5.3352-106.67 16.171l19.501 101.16c25.167-6.163 43.334-9.3365 54.17-9.3365 16.668 0 27.66 4.1669 33.161 12.501 5.5007 8.1683 8.1683 25.167 8.1683 50.831v312.5c0 46.499-1.8305 78.169-5.6663 95.168-3.8358 16.833-12.666 30.337-26.501 40.667-13.835 10.164-31.827 15.334-54.326 15.334-36.84 0-65.006-12.004-84.341-35.838-19.501-23.999-29.159-67.158-29.159-129.5v-259.66h-137v587h-71.004v71.997h71.004v57.003h137v-57.003z"/></glyph></font>
</defs>
</svg>
