<svg xmlns="http://www.w3.org/2000/svg">
<defs>
<font
   horiz-adv-x="2048"
   id="font4">
<!-- Copyright (c) 2003 by Bitstream, Inc. All Rights Reserved.&#xA;Copyright (c) 2006 by Tavmjong Bah. All Rights Reserved.&#xA;DejaVu changes are in public domain&#xA; -->
<!-- Copyright: Copyright 2008 Adobe System Incorporated. All rights reserved. -->
<font-face
   font-family="DejaVuSansCondensed"
   units-per-em="2048"
   underline-position="-130"
   underline-thickness="90"
   id="font-face6" />
<missing-glyph
   horiz-adv-x="1106"
   d="M92,-362l0,1806l921,0l0,-1806M195,-248l716,0l0,1577l-716,0z"
   id="missing-glyph8" />
<glyph
   unicode=" "
   horiz-adv-x="585"
   id="glyph10" />
<glyph
   unicode="!"
   horiz-adv-x="738"
   d="M278,254l183,0l0,-254l-183,0M278,1493l183,0l0,-655l-18,-357l-146,0l-19,357z"
   id="glyph12" />
<glyph
   unicode="&quot;"
   horiz-adv-x="847"
   d="M330,1493l0,-555l-153,0l0,555M670,1493l0,-555l-152,0l0,555z"
   id="glyph14" />
<glyph
   unicode="#"
   horiz-adv-x="1544"
   d="M942,901l-262,0l-75,-334l263,0M807,1470l-93,-415l262,0l95,415l144,0l-93,-415l281,0l0,-154l-316,0l-74,-334l287,0l0,-153l-322,0l-93,-414l-144,0l92,414l-263,0l-93,-414l-145,0l94,414l-284,0l0,153l317,0l76,334l-290,0l0,154l325,0l92,415z"
   id="glyph16" />
<glyph
   unicode="$"
   horiz-adv-x="1172"
   d="M623,-301l-90,0l-1,301C469,1 406,10 343,25C280,40 216,62 153,92l0,180C214,229 276,197 339,176C402,154 466,143 533,142l0,456C400,622 304,663 244,720C183,777 153,856 153,956C153,1065 186,1150 251,1213C316,1276 410,1312 533,1321l0,235l90,0l0,-232C678,1321 732,1315 785,1305C837,1294 888,1280 938,1262l0,-175C888,1115 837,1137 785,1152C732,1167 678,1176 623,1179l0,-427C759,729 859,687 924,627C988,567 1020,485 1020,381C1020,268 986,180 918,115C849,50 751,12 623,2M533,770l0,410C463,1171 410,1149 374,1114C337,1079 319,1032 319,973C319,916 336,871 370,839C403,807 458,784 533,770M623,578l0,-433C699,156 756,180 795,217C834,254 853,302 853,362C853,421 835,467 798,502C761,537 702,562 623,578z"
   id="glyph18" />
<glyph
   unicode="%"
   horiz-adv-x="1751"
   d="M1340,657C1288,657 1247,632 1218,583C1188,534 1173,465 1173,377C1173,290 1188,222 1218,173C1247,123 1288,98 1340,98C1391,98 1432,123 1462,173C1491,222 1506,290 1506,377C1506,464 1491,533 1462,583C1432,632 1391,657 1340,657M1340,784C1435,784 1510,747 1566,674C1622,601 1650,502 1650,377C1650,252 1622,154 1566,81C1509,8 1434,-29 1340,-29C1244,-29 1168,8 1113,81C1057,154 1029,252 1029,377C1029,502 1057,602 1113,675C1169,748 1245,784 1340,784M411,1393C360,1393 319,1368 290,1319C260,1269 245,1201 245,1114C245,1026 260,957 289,908C318,859 359,834 411,834C464,834 505,859 535,908C564,957 579,1026 579,1114C579,1200 564,1268 534,1318C504,1368 463,1393 411,1393M1224,1520l144,0l-841,-1549l-144,0M411,1520C506,1520 582,1484 639,1411C695,1338 723,1239 723,1114C723,988 695,889 639,816C582,743 506,707 411,707C316,707 240,744 185,817C130,890 102,989 102,1114C102,1238 130,1337 186,1410C241,1483 316,1520 411,1520z"
   id="glyph20" />
<glyph
   unicode="&amp;"
   horiz-adv-x="1437"
   d="M448,803C393,749 353,695 328,642C303,588 290,532 290,473C290,376 322,295 386,230C449,165 529,133 625,133C682,133 735,144 785,165C835,186 882,217 925,260M575,915l457,-520C1067,454 1095,518 1115,586C1135,653 1147,725 1150,801l168,0C1311,713 1291,626 1260,540C1229,454 1185,369 1130,285l251,-285l-227,0l-129,147C963,88 898,44 829,15C760,-14 687,-29 608,-29C464,-29 346,17 254,109C162,200 116,318 116,461C116,546 136,627 177,702C217,777 277,847 357,913C328,955 307,997 292,1039C277,1080 269,1121 269,1161C269,1269 302,1356 369,1422C436,1487 524,1520 634,1520C684,1520 734,1514 784,1502C833,1490 883,1472 934,1448l0,-182C882,1297 832,1321 785,1338C738,1354 693,1362 652,1362C589,1362 538,1344 499,1307C460,1270 440,1222 440,1163C440,1129 449,1095 467,1061C484,1026 520,978 575,915z"
   id="glyph22" />
<glyph
   unicode="'"
   horiz-adv-x="506"
   d="M330,1493l0,-555l-153,0l0,555z"
   id="glyph24" />
<glyph
   unicode="("
   horiz-adv-x="719"
   d="M572,1554C491,1401 432,1249 393,1099C354,949 334,797 334,643C334,489 354,337 393,186C432,35 492,-117 572,-270l-144,0C337,-113 270,41 225,192C180,343 158,494 158,643C158,792 180,941 225,1092C270,1243 337,1397 428,1554z"
   id="glyph26" />
<glyph
   unicode=")"
   horiz-adv-x="719"
   d="M148,1554l144,0C382,1397 449,1243 494,1092C539,941 561,792 561,643C561,494 539,343 494,192C449,41 382,-113 292,-270l-144,0C227,-117 287,35 326,186C365,337 385,489 385,643C385,797 365,949 326,1099C287,1249 227,1401 148,1554z"
   id="glyph28" />
<glyph
   unicode="*"
   horiz-adv-x="921"
   d="M867,1247l-323,-194l323,-195l-53,-98l-302,203l0,-377l-102,0l0,377l-303,-203l-52,98l323,195l-323,194l52,99l303,-203l0,377l102,0l0,-377l302,203z"
   id="glyph30" />
<glyph
   unicode="+"
   horiz-adv-x="1544"
   d="M848,1284l0,-557l501,0l0,-170l-501,0l0,-557l-151,0l0,557l-502,0l0,170l502,0l0,557z"
   id="glyph32" />
<glyph
   unicode=","
   horiz-adv-x="585"
   d="M216,254l190,0l0,-172l-148,-320l-116,0l74,320z"
   id="glyph34" />
<glyph
   unicode="-"
   horiz-adv-x="665"
   d="M90,643l485,0l0,-164l-485,0z"
   id="glyph36" />
<glyph
   unicode="."
   horiz-adv-x="585"
   d="M197,254l190,0l0,-254l-190,0z"
   id="glyph38" />
<glyph
   unicode="/"
   horiz-adv-x="621"
   d="M468,1493l153,0l-468,-1683l-153,0z"
   id="glyph40" />
<glyph
   unicode="0"
   horiz-adv-x="1172"
   d="M586,1360C493,1360 422,1309 375,1207C328,1104 304,950 304,745C304,540 328,387 375,285C422,182 493,131 586,131C680,131 751,182 798,285C845,387 868,540 868,745C868,950 845,1104 798,1207C751,1309 680,1360 586,1360M586,1520C737,1520 852,1454 931,1322C1010,1189 1050,997 1050,745C1050,494 1010,302 931,170C852,37 737,-29 586,-29C435,-29 320,37 241,170C162,302 122,494 122,745C122,997 162,1189 241,1322C320,1454 435,1520 586,1520z"
   id="glyph42" />
<glyph
   unicode="1"
   horiz-adv-x="1172"
   d="M229,170l297,0l0,1139l-324,-72l0,184l322,72l182,0l0,-1323l297,0l0,-170l-774,0z"
   id="glyph44" />
<glyph
   unicode="2"
   horiz-adv-x="1172"
   d="M354,170l634,0l0,-170l-853,0l0,170C204,249 298,356 417,490C536,623 611,709 642,748C700,821 741,882 764,933C787,983 798,1032 798,1081C798,1160 773,1225 723,1275C673,1325 608,1350 527,1350C470,1350 410,1339 347,1317C284,1295 216,1262 144,1217l0,204C217,1454 286,1478 350,1495C413,1512 471,1520 524,1520C663,1520 774,1481 857,1404C940,1327 981,1223 981,1094C981,1033 971,975 950,920C929,865 892,800 837,725C822,706 774,650 694,558C613,465 500,336 354,170z"
   id="glyph46" />
<glyph
   unicode="3"
   horiz-adv-x="1172"
   d="M748,805C835,784 903,741 952,676C1001,611 1025,530 1025,434C1025,287 980,173 889,92C798,11 668,-29 500,-29C443,-29 385,-23 326,-10C266,2 204,20 140,45l0,195C191,207 246,183 306,166C366,149 429,141 494,141C608,141 695,166 755,216C814,266 844,339 844,434C844,522 816,591 761,641C706,690 628,715 529,715l-156,0l0,166l163,0C625,881 694,901 742,941C789,980 813,1037 813,1112C813,1189 789,1248 740,1289C691,1330 620,1350 529,1350C479,1350 426,1344 369,1332C312,1320 250,1301 181,1276l0,180C250,1477 314,1493 375,1504C435,1515 492,1520 545,1520C683,1520 792,1485 873,1416C954,1346 994,1252 994,1133C994,1050 973,981 930,924C887,867 827,827 748,805z"
   id="glyph48" />
<glyph
   unicode="4"
   horiz-adv-x="1172"
   d="M697,1317l-459,-797l459,0M649,1493l229,0l0,-973l191,0l0,-168l-191,0l0,-352l-181,0l0,352l-607,0l0,195z"
   id="glyph50" />
<glyph
   unicode="5"
   horiz-adv-x="1172"
   d="M199,1493l714,0l0,-170l-548,0l0,-366C392,967 418,975 445,980C471,985 497,987 524,987C674,987 793,941 881,850C968,759 1012,635 1012,479C1012,318 967,194 877,105C787,16 660,-29 496,-29C439,-29 382,-24 324,-13C265,-2 205,14 142,35l0,203C196,205 252,181 310,165C367,149 428,141 492,141C596,141 678,171 739,232C800,293 830,375 830,479C830,583 800,665 739,726C678,787 596,817 492,817C443,817 395,811 347,799C298,787 249,768 199,743z"
   id="glyph52" />
<glyph
   unicode="6"
   horiz-adv-x="1172"
   d="M608,827C527,827 462,796 415,734C367,672 343,587 343,479C343,372 367,287 415,225C462,162 527,131 608,131C690,131 755,162 803,225C850,287 874,372 874,479C874,587 850,672 803,734C755,796 690,827 608,827M969,1460l0,-184C924,1300 878,1318 831,1331C784,1344 738,1350 693,1350C573,1350 481,1305 418,1215C355,1125 319,989 310,807C345,865 390,910 443,941C496,972 555,987 619,987C754,987 861,942 940,851C1018,760 1057,636 1057,479C1057,326 1016,203 935,110C853,17 744,-29 608,-29C453,-29 334,37 252,170C170,302 129,494 129,745C129,981 179,1169 280,1310C381,1450 516,1520 686,1520C731,1520 777,1515 824,1505C871,1495 919,1480 969,1460z"
   id="glyph54" />
<glyph
   unicode="7"
   horiz-adv-x="1172"
   d="M151,1493l864,0l0,-86l-488,-1407l-189,0l458,1323l-645,0z"
   id="glyph56" />
<glyph
   unicode="8"
   horiz-adv-x="1172"
   d="M586,709C499,709 431,683 382,632C333,581 308,510 308,420C308,330 333,259 382,208C431,157 499,131 586,131C673,131 741,157 791,209C840,260 865,331 865,420C865,510 840,581 791,632C741,683 673,709 586,709M404,795C326,816 265,857 222,916C179,975 157,1048 157,1133C157,1252 195,1347 272,1416C348,1485 453,1520 586,1520C720,1520 825,1485 901,1416C977,1347 1015,1252 1015,1133C1015,1048 993,975 950,916C907,857 846,816 769,795C856,772 925,728 974,662C1023,596 1047,515 1047,420C1047,275 1007,164 928,87C848,10 734,-29 586,-29C438,-29 324,10 245,87C165,164 125,275 125,420C125,515 150,596 199,662C248,728 317,772 404,795M338,1114C338,1037 360,976 403,933C446,890 507,868 586,868C664,868 725,890 769,933C813,976 835,1037 835,1114C835,1191 813,1252 769,1295C725,1338 664,1360 586,1360C507,1360 446,1338 403,1295C360,1252 338,1191 338,1114z"
   id="glyph58" />
<glyph
   unicode="9"
   horiz-adv-x="1172"
   d="M202,31l0,184C248,191 294,173 341,160C388,147 434,141 479,141C599,141 691,186 754,276C817,365 853,501 862,684C827,627 783,583 730,552C677,521 618,506 553,506C418,506 312,551 234,642C155,732 116,855 116,1012C116,1165 157,1288 239,1381C320,1474 429,1520 564,1520C719,1520 838,1454 920,1322C1002,1189 1043,997 1043,745C1043,510 993,322 893,182C792,41 657,-29 487,-29C441,-29 395,-24 348,-14C301,-4 253,11 202,31M564,664C646,664 711,695 759,757C806,819 830,904 830,1012C830,1119 806,1204 759,1267C711,1329 646,1360 564,1360C483,1360 418,1329 371,1267C323,1204 299,1119 299,1012C299,904 323,819 371,757C418,695 483,664 564,664z"
   id="glyph60" />
<glyph
   unicode=":"
   horiz-adv-x="621"
   d="M216,254l190,0l0,-254l-190,0M216,1059l190,0l0,-254l-190,0z"
   id="glyph62" />
<glyph
   unicode=";"
   horiz-adv-x="621"
   d="M216,1059l190,0l0,-254l-190,0M216,254l190,0l0,-172l-148,-320l-116,0l74,320z"
   id="glyph64" />
<glyph
   unicode="&lt;"
   horiz-adv-x="1544"
   d="M1349,1008l-929,-367l929,-365l0,-182l-1154,465l0,166l1154,465z"
   id="glyph66" />
<glyph
   unicode="="
   horiz-adv-x="1544"
   d="M195,930l1154,0l0,-168l-1154,0M195,522l1154,0l0,-170l-1154,0z"
   id="glyph68" />
<glyph
   unicode="&gt;"
   horiz-adv-x="1544"
   d="M195,1008l0,182l1154,-465l0,-166l-1154,-465l0,182l927,365z"
   id="glyph70" />
<glyph
   unicode="?"
   horiz-adv-x="978"
   d="M352,254l183,0l0,-254l-183,0M529,401l-172,0l0,154C357,622 366,678 383,721C400,764 435,815 489,872l81,89C604,996 629,1030 644,1061C659,1092 667,1124 667,1157C667,1216 647,1264 608,1301C569,1338 517,1356 452,1356C405,1356 354,1344 301,1321C247,1298 191,1264 132,1219l0,188C189,1445 246,1473 304,1492C362,1511 422,1520 483,1520C594,1520 683,1488 750,1423C817,1358 850,1273 850,1167C850,1116 839,1068 818,1023C796,977 758,925 704,868l-79,-86C596,751 576,726 565,709C553,691 545,674 540,657C537,643 534,626 532,606C530,586 529,559 529,524z"
   id="glyph72" />
<glyph
   unicode="@"
   horiz-adv-x="1843"
   d="M686,537C686,442 707,367 750,313C793,258 851,231 925,231C999,231 1057,258 1100,313C1142,368 1163,442 1163,537C1163,630 1141,705 1098,760C1055,815 996,842 923,842C850,842 793,815 750,760C707,705 686,631 686,537M1176,238C1140,187 1099,149 1053,125C1006,100 952,88 890,88C787,88 703,130 639,213C574,296 542,404 542,537C542,670 574,779 639,862C704,945 787,987 890,987C952,987 1006,975 1053,950C1100,925 1141,887 1176,836l0,131l129,0l0,-736C1392,246 1461,290 1511,365C1560,439 1585,535 1585,653C1585,724 1576,791 1557,854C1538,917 1509,975 1471,1028C1408,1115 1332,1182 1243,1229C1153,1275 1055,1298 950,1298C876,1298 805,1287 737,1266C669,1244 606,1212 549,1169C455,1101 381,1012 328,902C275,791 248,672 248,543C248,437 265,338 300,245C335,152 385,71 450,0C513,-69 586,-122 669,-158C752,-195 840,-213 934,-213C1011,-213 1087,-198 1162,-169C1237,-140 1305,-99 1368,-45l81,-111C1374,-221 1292,-270 1204,-304C1115,-339 1025,-356 934,-356C823,-356 719,-334 620,-290C521,-247 434,-183 357,-100C280,-17 222,80 182,190C142,299 122,417 122,543C122,664 142,780 183,890C224,1000 282,1097 357,1180C434,1265 524,1330 626,1375C727,1420 835,1442 948,1442C1075,1442 1193,1413 1302,1355C1411,1297 1502,1215 1576,1108C1621,1043 1655,972 1679,895C1702,818 1714,739 1714,657C1714,482 1666,343 1571,242C1476,141 1344,88 1176,84z"
   id="glyph74" />
<glyph
   unicode="A"
   horiz-adv-x="1260"
   d="M630,1294l-247,-743l495,0M527,1493l207,0l512,-1493l-189,0l-123,383l-606,0l-122,-383l-192,0z"
   id="glyph76" />
<glyph
   unicode="B"
   horiz-adv-x="1264"
   d="M363,713l0,-547l291,0C752,166 825,189 872,234C919,279 942,347 942,440C942,533 919,602 872,647C825,691 752,713 654,713M363,1327l0,-450l269,0C721,877 787,896 831,933C874,970 896,1026 896,1102C896,1177 874,1234 831,1271C787,1308 721,1327 632,1327M181,1493l464,0C784,1493 891,1461 966,1397C1041,1333 1078,1242 1078,1124C1078,1033 1059,960 1021,906C982,852 926,818 851,805C941,784 1011,739 1060,672C1109,604 1134,519 1134,418C1134,285 1093,182 1012,109C930,36 814,0 663,0l-482,0z"
   id="glyph78" />
<glyph
   unicode="C"
   horiz-adv-x="1287"
   d="M1187,1378l0,-213C1126,1228 1060,1276 991,1307C922,1338 848,1354 770,1354C617,1354 499,1302 418,1198C336,1093 295,942 295,745C295,548 336,398 418,294C499,189 617,137 770,137C848,137 922,153 991,184C1060,215 1126,263 1187,326l0,-211C1124,67 1056,31 985,7C914,-17 839,-29 760,-29C556,-29 396,40 279,179C162,317 104,506 104,745C104,985 162,1174 279,1313C396,1451 556,1520 760,1520C840,1520 916,1508 987,1485C1058,1461 1125,1425 1187,1378z"
   id="glyph80" />
<glyph
   unicode="D"
   horiz-adv-x="1419"
   d="M363,1327l0,-1161l219,0C767,166 903,213 990,306C1076,399 1119,547 1119,748C1119,948 1076,1095 990,1188C903,1281 767,1327 582,1327M181,1493l373,0C815,1493 1006,1433 1128,1313C1249,1192 1310,1004 1310,748C1310,491 1249,302 1127,181C1004,60 813,0 554,0l-373,0z"
   id="glyph82" />
<glyph
   unicode="E"
   horiz-adv-x="1164"
   d="M181,1493l849,0l0,-170l-667,0l0,-442l640,0l0,-170l-640,0l0,-541l684,0l0,-170l-866,0z"
   id="glyph84" />
<glyph
   unicode="F"
   horiz-adv-x="1060"
   d="M181,1493l772,0l0,-170l-590,0l0,-440l533,0l0,-170l-533,0l0,-713l-182,0z"
   id="glyph86" />
<glyph
   unicode="G"
   horiz-adv-x="1428"
   d="M1097,213l0,401l-297,0l0,166l477,0l0,-641C1207,84 1130,42 1045,14C960,-15 870,-29 774,-29C564,-29 400,39 282,176C163,312 104,502 104,745C104,989 163,1179 282,1316C400,1452 564,1520 774,1520C861,1520 945,1508 1024,1484C1103,1460 1175,1425 1242,1378l0,-215C1175,1226 1103,1274 1028,1306C952,1338 872,1354 789,1354C625,1354 502,1303 419,1201C336,1099 295,947 295,745C295,544 336,392 419,290C502,188 625,137 789,137C854,137 911,143 962,156C1012,168 1057,187 1097,213z"
   id="glyph88" />
<glyph
   unicode="H"
   horiz-adv-x="1386"
   d="M181,1493l182,0l0,-612l660,0l0,612l182,0l0,-1493l-182,0l0,711l-660,0l0,-711l-182,0z"
   id="glyph90" />
<glyph
   unicode="I"
   horiz-adv-x="543"
   d="M181,1493l182,0l0,-1493l-182,0z"
   id="glyph92" />
<glyph
   unicode="J"
   horiz-adv-x="543"
   d="M182,1493l182,0l0,-1389C364,-76 333,-207 272,-288C210,-369 111,-410 -25,-410l-69,0l0,170l56,0C43,-240 100,-215 133,-165C166,-115 182,-25 182,104z"
   id="glyph94" />
<glyph
   unicode="K"
   horiz-adv-x="1208"
   d="M181,1493l182,0l0,-631l603,631l234,0l-667,-696l714,-797l-239,0l-645,719l0,-719l-182,0z"
   id="glyph96" />
<glyph
   unicode="L"
   horiz-adv-x="1026"
   d="M181,1493l182,0l0,-1323l654,0l0,-170l-836,0z"
   id="glyph98" />
<glyph
   unicode="M"
   horiz-adv-x="1590"
   d="M181,1493l271,0l343,-1016l344,1016l271,0l0,-1493l-177,0l0,1311l-347,-1024l-182,0l-347,1024l0,-1311l-176,0z"
   id="glyph100" />
<glyph
   unicode="N"
   horiz-adv-x="1378"
   d="M181,1493l245,0l596,-1249l0,1249l176,0l0,-1493l-245,0l-596,1249l0,-1249l-176,0z"
   id="glyph102" />
<glyph
   unicode="O"
   horiz-adv-x="1450"
   d="M726,1356C594,1356 489,1301 412,1192C334,1083 295,934 295,745C295,557 334,408 412,299C489,190 594,135 726,135C858,135 963,190 1040,299C1117,408 1156,557 1156,745C1156,934 1117,1083 1040,1192C963,1301 858,1356 726,1356M726,1520C915,1520 1065,1450 1178,1310C1291,1169 1347,981 1347,745C1347,510 1291,322 1178,182C1065,41 915,-29 726,-29C537,-29 387,41 274,181C161,321 104,509 104,745C104,981 161,1169 274,1310C387,1450 537,1520 726,1520z"
   id="glyph104" />
<glyph
   unicode="P"
   horiz-adv-x="1111"
   d="M363,1327l0,-561l228,0C676,766 741,790 788,839C834,888 857,957 857,1047C857,1136 834,1205 788,1254C741,1303 676,1327 591,1327M181,1493l410,0C742,1493 856,1455 933,1380C1010,1304 1048,1193 1048,1047C1048,900 1010,788 933,713C856,638 742,600 591,600l-228,0l0,-600l-182,0z"
   id="glyph106" />
<glyph
   unicode="Q"
   horiz-adv-x="1450"
   d="M726,1356C594,1356 489,1301 412,1192C334,1083 295,934 295,745C295,557 334,408 412,299C489,190 594,135 726,135C858,135 963,190 1040,299C1117,408 1156,557 1156,745C1156,934 1117,1083 1040,1192C963,1301 858,1356 726,1356M981,27l239,-291l-219,0l-199,239C782,-26 767,-27 757,-28C746,-29 736,-29 726,-29C537,-29 387,41 274,182C161,322 104,510 104,745C104,981 161,1169 274,1310C387,1450 537,1520 726,1520C915,1520 1065,1450 1178,1310C1291,1169 1347,981 1347,745C1347,572 1316,423 1253,300C1190,177 1100,86 981,27z"
   id="glyph108" />
<glyph
   unicode="R"
   horiz-adv-x="1280"
   d="M818,700C857,685 895,654 932,606C969,558 1006,492 1043,408l185,-408l-196,0l-172,383C816,483 773,549 732,582C690,615 633,631 561,631l-198,0l0,-631l-182,0l0,1493l410,0C745,1493 860,1457 935,1386C1010,1315 1048,1207 1048,1063C1048,969 1029,891 990,829C951,767 893,724 818,700M363,1327l0,-530l228,0C679,797 745,820 790,865C835,910 857,976 857,1063C857,1150 835,1216 790,1261C745,1305 679,1327 591,1327z"
   id="glyph110" />
<glyph
   unicode="S"
   horiz-adv-x="1170"
   d="M986,1444l0,-197C917,1284 852,1311 791,1329C730,1347 671,1356 614,1356C515,1356 438,1335 385,1292C331,1249 304,1189 304,1110C304,1044 322,994 358,961C393,927 461,900 561,879l109,-25C806,825 906,775 971,703C1035,630 1067,533 1067,412C1067,267 1024,158 937,83C850,8 722,-29 553,-29C489,-29 421,-21 350,-5C278,11 204,35 127,66l0,208C201,228 273,193 344,170C415,147 484,135 553,135C656,135 736,158 793,203C850,248 878,313 878,397C878,470 858,528 817,569C776,610 710,641 617,662l-110,24C371,716 273,763 213,827C152,891 122,980 122,1094C122,1226 164,1330 248,1406C331,1482 446,1520 593,1520C656,1520 721,1514 786,1501C851,1488 918,1469 986,1444z"
   id="glyph112" />
<glyph
   unicode="T"
   horiz-adv-x="1125"
   d="M-4,1493l1136,0l0,-170l-477,0l0,-1323l-182,0l0,1323l-477,0z"
   id="glyph114" />
<glyph
   unicode="U"
   horiz-adv-x="1349"
   d="M160,1493l183,0l0,-907C343,426 369,311 422,241C474,170 558,135 675,135C792,135 876,170 928,241C980,311 1006,426 1006,586l0,907l183,0l0,-932C1189,366 1146,219 1059,120C972,21 844,-29 675,-29C505,-29 377,21 290,120C203,219 160,366 160,561z"
   id="glyph116" />
<glyph
   unicode="V"
   horiz-adv-x="1260"
   d="M527,0l-513,1493l190,0l426,-1257l427,1257l189,0l-512,-1493z"
   id="glyph118" />
<glyph
   unicode="W"
   horiz-adv-x="1822"
   d="M61,1493l184,0l282,-1262l282,1262l204,0l283,-1262l282,1262l184,0l-337,-1493l-229,0l-283,1296l-287,-1296l-228,0z"
   id="glyph120" />
<glyph
   unicode="X"
   horiz-adv-x="1262"
   d="M116,1493l195,0l334,-555l336,555l195,0l-432,-717l461,-776l-195,0l-378,635l-381,-635l-196,0l480,797z"
   id="glyph122" />
<glyph
   unicode="Y"
   horiz-adv-x="1125"
   d="M-3,1493l196,0l372,-614l370,614l196,0l-476,-782l0,-711l-182,0l0,711z"
   id="glyph124" />
<glyph
   unicode="Z"
   horiz-adv-x="1262"
   d="M104,1493l1055,0l0,-154l-849,-1169l870,0l0,-170l-1097,0l0,154l849,1169l-828,0z"
   id="glyph126" />
<glyph
   unicode="["
   horiz-adv-x="719"
   d="M158,1556l382,0l0,-143l-216,0l0,-1540l216,0l0,-143l-382,0z"
   id="glyph128" />
<glyph
   unicode="\"
   horiz-adv-x="621"
   d="M153,1493l468,-1683l-153,0l-468,1683z"
   id="glyph130" />
<glyph
   unicode="]"
   horiz-adv-x="719"
   d="M561,1556l0,-1826l-382,0l0,143l215,0l0,1540l-215,0l0,143z"
   id="glyph132" />
<glyph
   unicode="^"
   horiz-adv-x="1544"
   d="M860,1493l489,-557l-181,0l-396,395l-396,-395l-181,0l489,557z"
   id="glyph134" />
<glyph
   unicode="_"
   horiz-adv-x="921"
   d="M940,-340l0,-143l-958,0l0,143z"
   id="glyph136" />
<glyph
   unicode="`"
   horiz-adv-x="921"
   d="M330,1638l254,-374l-138,0l-293,374z"
   id="glyph138" />
<glyph
   unicode="a"
   horiz-adv-x="1129"
   d="M632,563C498,563 405,546 354,512C302,478 276,420 276,338C276,273 295,221 334,183C373,144 425,125 492,125C584,125 658,161 713,234C768,306 796,402 796,522l0,41M962,639l0,-639l-166,0l0,170C759,102 712,52 656,20C599,-13 530,-29 448,-29C345,-29 263,3 202,68C141,132 111,218 111,326C111,452 149,547 225,611C300,675 413,707 564,707l232,0l0,18C796,810 771,875 721,922C671,968 601,991 510,991C453,991 397,983 342,968C287,953 235,930 184,899l0,170C245,1095 304,1115 361,1128C418,1141 473,1147 527,1147C673,1147 782,1105 854,1021C926,937 962,810 962,639z"
   id="glyph140" />
<glyph
   unicode="b"
   horiz-adv-x="1170"
   d="M897,559C897,694 872,801 822,878C772,955 703,993 616,993C528,993 459,955 409,878C359,801 334,694 334,559C334,424 359,318 409,241C459,164 528,125 616,125C703,125 772,164 822,241C872,318 897,424 897,559M334,950C369,1017 413,1066 466,1099C519,1131 582,1147 656,1147C779,1147 878,1093 955,985C1031,877 1069,735 1069,559C1069,383 1031,241 955,133C878,25 779,-29 656,-29C582,-29 519,-13 466,20C413,52 369,101 334,168l0,-168l-167,0l0,1556l167,0z"
   id="glyph142" />
<glyph
   unicode="c"
   horiz-adv-x="1013"
   d="M899,1077l0,-172C852,934 806,955 759,970C712,984 664,991 616,991C508,991 424,953 365,878C306,802 276,696 276,559C276,422 306,316 365,241C424,165 508,127 616,127C664,127 712,134 759,149C806,163 852,184 899,213l0,-170C853,19 805,1 756,-11C706,-23 653,-29 598,-29C446,-29 325,24 236,130C147,236 102,379 102,559C102,742 147,885 238,990C328,1095 451,1147 608,1147C659,1147 709,1141 758,1130C807,1118 854,1100 899,1077z"
   id="glyph144" />
<glyph
   unicode="d"
   horiz-adv-x="1170"
   d="M837,950l0,606l166,0l0,-1556l-166,0l0,168C802,101 759,52 706,20C653,-13 589,-29 514,-29C392,-29 293,25 217,133C140,241 102,383 102,559C102,735 140,877 217,985C293,1093 392,1147 514,1147C589,1147 653,1131 706,1099C759,1066 802,1017 837,950M273,559C273,424 298,318 348,241C398,164 467,125 554,125C642,125 711,164 762,241C812,318 837,424 837,559C837,694 812,801 762,878C711,955 642,993 554,993C467,993 398,955 348,878C298,801 273,694 273,559z"
   id="glyph146" />
<glyph
   unicode="e"
   horiz-adv-x="1134"
   d="M1036,606l0,-90l-762,0C281,389 316,293 378,227C439,160 525,127 634,127C698,127 760,136 820,153C879,170 938,196 997,231l0,-174C938,29 877,8 815,-7C752,-22 689,-29 625,-29C464,-29 336,23 243,127C149,231 102,372 102,549C102,732 147,878 236,986C325,1093 445,1147 596,1147C731,1147 839,1099 918,1002C997,905 1036,773 1036,606M870,660C869,761 843,841 794,901C745,961 679,991 598,991C505,991 431,962 376,904C320,846 288,764 280,659z"
   id="glyph148" />
<glyph
   unicode="f"
   horiz-adv-x="648"
   d="M684,1556l0,-153l-158,0C466,1403 425,1390 402,1363C379,1336 367,1288 367,1219l0,-99l273,0l0,-143l-273,0l0,-977l-166,0l0,977l-159,0l0,143l159,0l0,78C201,1323 227,1414 279,1471C331,1528 414,1556 527,1556z"
   id="glyph150" />
<glyph
   unicode="g"
   horiz-adv-x="1170"
   d="M837,573C837,706 812,810 763,883C713,956 643,993 554,993C465,993 396,956 347,883C298,810 273,706 273,573C273,440 298,337 347,264C396,191 465,154 554,154C643,154 713,191 763,264C812,337 837,440 837,573M1003,139C1003,-52 965,-193 889,-286C812,-379 695,-426 538,-426C480,-426 425,-421 374,-411C322,-402 272,-387 223,-367l0,179C272,-217 320,-239 367,-253C414,-267 463,-274 512,-274C621,-274 702,-242 756,-179C810,-116 837,-21 837,106l0,91C803,131 759,82 706,49C653,16 589,0 514,0C390,0 290,52 215,157C140,262 102,400 102,573C102,746 140,885 215,990C290,1095 390,1147 514,1147C589,1147 653,1131 706,1098C759,1065 803,1016 837,950l0,170l166,0z"
   id="glyph152" />
<glyph
   unicode="h"
   horiz-adv-x="1168"
   d="M1012,676l0,-676l-166,0l0,670C846,776 827,855 790,908C753,961 697,987 623,987C534,987 463,955 412,892C360,829 334,742 334,633l0,-633l-167,0l0,1556l167,0l0,-610C373,1013 420,1064 474,1097C527,1130 589,1147 660,1147C775,1147 863,1107 923,1028C982,948 1012,831 1012,676z"
   id="glyph154" />
<glyph
   unicode="i"
   horiz-adv-x="512"
   d="M174,1120l165,0l0,-1120l-165,0M174,1556l165,0l0,-233l-165,0z"
   id="glyph156" />
<glyph
   unicode="j"
   horiz-adv-x="512"
   d="M175,1120l165,0l0,-1140C340,-163 316,-266 267,-330C218,-394 140,-426 31,-426l-63,0l0,156l44,0C75,-270 118,-254 141,-221C164,-189 175,-122 175,-20M175,1556l165,0l0,-233l-165,0z"
   id="glyph158" />
<glyph
   unicode="k"
   horiz-adv-x="1067"
   d="M167,1556l167,0l0,-919l494,483l212,0l-535,-524l557,-596l-216,0l-512,547l0,-547l-167,0z"
   id="glyph160" />
<glyph
   unicode="l"
   horiz-adv-x="512"
   d="M174,1556l165,0l0,-1556l-165,0z"
   id="glyph162" />
<glyph
   unicode="m"
   horiz-adv-x="1795"
   d="M958,905C1000,988 1050,1049 1107,1088C1164,1127 1232,1147 1310,1147C1415,1147 1497,1106 1554,1025C1611,943 1639,827 1639,676l0,-676l-167,0l0,670C1472,777 1455,857 1421,909C1387,961 1335,987 1264,987C1179,987 1111,955 1061,892C1011,829 986,742 986,633l0,-633l-166,0l0,670C820,778 803,858 769,910C734,961 681,987 610,987C525,987 458,955 409,892C359,828 334,742 334,633l0,-633l-167,0l0,1120l167,0l0,-174C372,1015 417,1065 470,1098C523,1131 585,1147 658,1147C731,1147 794,1126 845,1085C896,1044 934,984 958,905z"
   id="glyph164" />
<glyph
   unicode="n"
   horiz-adv-x="1168"
   d="M1012,676l0,-676l-166,0l0,670C846,776 827,855 790,908C753,961 697,987 623,987C534,987 463,955 412,892C360,829 334,742 334,633l0,-633l-167,0l0,1120l167,0l0,-174C373,1013 420,1064 474,1097C527,1130 589,1147 660,1147C775,1147 863,1107 923,1028C982,948 1012,831 1012,676z"
   id="glyph166" />
<glyph
   unicode="o"
   horiz-adv-x="1127"
   d="M564,991C475,991 405,953 354,876C302,799 276,693 276,559C276,425 302,320 353,243C404,166 475,127 564,127C653,127 723,166 774,243C825,320 851,426 851,559C851,692 825,797 774,875C723,952 653,991 564,991M564,1147C708,1147 821,1095 904,991C986,887 1027,743 1027,559C1027,376 986,232 904,128C821,23 708,-29 564,-29C419,-29 306,23 225,128C143,232 102,376 102,559C102,743 143,887 225,991C306,1095 419,1147 564,1147z"
   id="glyph168" />
<glyph
   unicode="p"
   horiz-adv-x="1170"
   d="M334,168l0,-594l-167,0l0,1546l167,0l0,-170C369,1017 413,1066 466,1099C519,1131 582,1147 656,1147C779,1147 878,1093 955,985C1031,877 1069,735 1069,559C1069,383 1031,241 955,133C878,25 779,-29 656,-29C582,-29 519,-13 466,20C413,52 369,101 334,168M897,559C897,694 872,801 822,878C772,955 703,993 616,993C528,993 459,955 409,878C359,801 334,694 334,559C334,424 359,318 409,241C459,164 528,125 616,125C703,125 772,164 822,241C872,318 897,424 897,559z"
   id="glyph170" />
<glyph
   unicode="q"
   horiz-adv-x="1170"
   d="M273,559C273,424 298,318 348,241C398,164 467,125 554,125C642,125 711,164 762,241C812,318 837,424 837,559C837,694 812,801 762,878C711,955 642,993 554,993C467,993 398,955 348,878C298,801 273,694 273,559M837,168C802,101 759,52 706,20C653,-13 589,-29 514,-29C392,-29 293,25 217,133C140,241 102,383 102,559C102,735 140,877 217,985C293,1093 392,1147 514,1147C589,1147 653,1131 706,1099C759,1066 802,1017 837,950l0,170l166,0l0,-1546l-166,0z"
   id="glyph172" />
<glyph
   unicode="r"
   horiz-adv-x="757"
   d="M758,948C739,960 719,969 697,975C675,980 651,983 625,983C531,983 459,949 409,882C359,814 334,717 334,590l0,-590l-167,0l0,1120l167,0l0,-174C369,1014 414,1065 470,1098C526,1131 594,1147 673,1147C684,1147 697,1146 711,1145C725,1143 740,1140 757,1137z"
   id="glyph174" />
<glyph
   unicode="s"
   horiz-adv-x="960"
   d="M816,1087l0,-174C769,940 721,960 671,973C620,986 568,993 514,993C432,993 370,979 329,951C288,923 267,881 267,825C267,782 282,749 312,725C341,700 400,677 489,655l56,-14C663,613 747,574 796,523C845,472 870,400 870,309C870,205 833,123 759,62C685,1 583,-29 454,-29C400,-29 344,-23 285,-11C226,0 165,18 100,41l0,190C161,196 222,169 281,152C340,134 399,125 457,125C535,125 595,140 637,170C679,199 700,241 700,295C700,345 685,383 655,410C624,437 558,462 455,487l-57,15C295,526 221,563 176,613C130,662 107,730 107,817C107,922 141,1004 208,1061C275,1118 371,1147 494,1147C555,1147 613,1142 667,1132C721,1122 771,1107 816,1087z"
   id="glyph176" />
<glyph
   unicode="t"
   horiz-adv-x="722"
   d="M338,1438l0,-318l341,0l0,-143l-341,0l0,-608C338,278 349,219 372,193C394,167 439,154 508,154l171,0l0,-154l-171,0C381,0 293,27 244,80C195,133 171,229 171,369l0,608l-121,0l0,143l121,0l0,318z"
   id="glyph178" />
<glyph
   unicode="u"
   horiz-adv-x="1168"
   d="M157,442l0,678l165,0l0,-671C322,343 341,264 378,211C415,158 471,131 545,131C635,131 706,163 758,226C809,289 835,376 835,485l0,635l166,0l0,-1120l-166,0l0,172C795,104 749,54 696,21C643,-12 581,-29 510,-29C395,-29 307,11 247,91C187,171 157,288 157,442z"
   id="glyph180" />
<glyph
   unicode="v"
   horiz-adv-x="1090"
   d="M55,1120l175,0l315,-940l315,940l176,0l-378,-1120l-225,0z"
   id="glyph182" />
<glyph
   unicode="w"
   horiz-adv-x="1507"
   d="M77,1120l166,0l207,-874l206,874l195,0l207,-874l206,874l166,0l-264,-1120l-195,0l-217,918l-218,-918l-195,0z"
   id="glyph184" />
<glyph
   unicode="x"
   horiz-adv-x="1090"
   d="M1012,1120l-365,-545l383,-575l-195,0l-293,440l-294,-440l-195,0l392,586l-359,534l196,0l267,-399l267,399z"
   id="glyph186" />
<glyph
   unicode="y"
   horiz-adv-x="1090"
   d="M593,-104C546,-237 501,-324 457,-365C412,-406 353,-426 278,-426l-132,0l0,154l97,0C288,-272 324,-260 349,-236C374,-212 402,-155 433,-66l30,84l-408,1102l175,0l315,-876l315,876l176,0z"
   id="glyph188" />
<glyph
   unicode="z"
   horiz-adv-x="967"
   d="M102,1120l786,0l0,-168l-622,-805l622,0l0,-147l-809,0l0,168l623,805l-600,0z"
   id="glyph190" />
<glyph
   unicode="{"
   horiz-adv-x="1172"
   d="M942,-190l0,-144l-56,0C737,-334 637,-309 586,-260C535,-211 510,-112 510,35l0,239C510,375 494,444 462,483C429,522 370,541 285,541l-55,0l0,143l55,0C371,684 430,703 462,742C494,780 510,849 510,948l0,240C510,1335 535,1434 586,1483C637,1532 737,1556 886,1556l56,0l0,-143l-61,0C796,1413 741,1398 716,1369C690,1340 677,1278 677,1184l0,-248C677,831 663,755 636,708C609,661 562,629 496,612C563,594 610,561 637,514C664,467 677,391 677,287l0,-248C677,-55 690,-117 716,-146C741,-175 796,-190 881,-190z"
   id="glyph192" />
<glyph
   unicode="|"
   horiz-adv-x="621"
   d="M387,1565l0,-2048l-153,0l0,2048z"
   id="glyph194" />
<glyph
   unicode="}"
   horiz-adv-x="1172"
   d="M230,-190l63,0C377,-190 432,-176 458,-147C483,-118 496,-56 496,39l0,248C496,391 510,467 537,514C564,561 610,594 677,612C610,629 564,661 537,708C510,755 496,831 496,936l0,248C496,1279 483,1341 458,1370C432,1399 377,1413 293,1413l-63,0l0,143l57,0C436,1556 536,1532 587,1483C637,1434 662,1335 662,1188l0,-240C662,849 678,780 711,742C743,703 801,684 886,684l56,0l0,-143l-56,0C801,541 743,522 711,483C678,444 662,375 662,274l0,-239C662,-112 637,-211 587,-260C536,-309 436,-334 287,-334l-57,0z"
   id="glyph196" />
<glyph
   unicode="~"
   horiz-adv-x="1544"
   d="M1349,817l0,-178C1286,586 1228,549 1175,526C1121,503 1065,492 1006,492C940,492 863,512 776,551C769,554 764,556 761,557C757,559 751,562 742,565C649,606 574,627 518,627C465,627 412,614 361,589C310,563 254,522 195,467l0,178C258,698 317,736 371,759C424,782 480,793 538,793C604,793 681,773 770,733C775,730 780,728 783,727C788,725 794,722 803,719C896,678 970,657 1027,657C1078,657 1129,670 1180,695C1231,720 1287,761 1349,817z"
   id="glyph198" />
<glyph
   unicode=" "
   horiz-adv-x="585"
   id="glyph200" />
<glyph
   unicode="¡"
   horiz-adv-x="738"
   d="M461,1239l-183,0l0,254l183,0M461,0l-183,0l0,655l19,357l146,0l18,-357z"
   id="glyph202" />
<glyph
   unicode="¢"
   horiz-adv-x="1172"
   d="M610,131l0,856C522,975 453,931 404,856C355,781 330,682 330,559C330,436 355,336 404,261C453,186 522,142 610,131M953,1077l0,-172C908,932 866,953 825,967C784,981 744,989 703,991l-1,-864C744,130 786,139 827,153C868,167 910,187 953,213l0,-170C914,23 874,7 833,-4C792,-16 748,-24 702,-29l0,-284l-92,0l0,288C465,-12 353,46 274,149C195,251 155,388 155,559C155,731 195,868 274,970C353,1072 465,1130 610,1145l0,287l92,0l1,-287C747,1142 790,1136 831,1125C872,1114 912,1098 953,1077z"
   id="glyph204" />
<glyph
   unicode="£"
   horiz-adv-x="1172"
   d="M992,1460l0,-182C946,1305 903,1326 862,1340C821,1353 783,1360 746,1360C657,1360 596,1334 561,1283C526,1231 508,1134 508,993l0,-215l352,0l0,-143l-352,0l0,-465l502,0l0,-170l-894,0l0,170l212,0l0,465l-179,0l0,143l179,0l0,238C328,1190 360,1318 425,1399C489,1480 591,1520 730,1520C767,1520 808,1515 853,1505C898,1494 945,1479 992,1460z"
   id="glyph206" />
<glyph
   unicode="¤"
   horiz-adv-x="1172"
   d="M802,993l186,209l103,-115l-186,-206C928,842 944,802 955,763C966,723 971,682 971,641C971,599 965,559 954,521C943,482 925,444 901,406l188,-207l-103,-113l-186,207C765,266 730,247 695,234C660,221 625,215 588,215C553,215 518,221 482,234C446,246 410,264 373,289l-187,-207l-101,115l186,206C249,444 232,485 221,524C210,563 204,602 204,641C204,684 210,724 221,763C232,802 250,840 273,877l-187,206l104,115l186,-207C409,1017 443,1036 478,1049C513,1061 549,1067 588,1067C624,1067 660,1061 695,1049C730,1037 765,1018 802,993M830,643C830,718 807,781 760,832C713,883 656,909 588,909C521,909 463,883 416,832C369,781 345,718 345,643C345,567 369,503 416,451C463,399 520,373 588,373C655,373 713,399 760,452C807,504 830,568 830,643z"
   id="glyph208" />
<glyph
   unicode="¥"
   horiz-adv-x="1172"
   d="M1048,455l-371,0l0,-455l-181,0l0,455l-374,0l0,123l374,0l0,51l-76,155l-298,0l0,123l237,0l-285,586l171,0l341,-700l339,700l172,0l-286,-586l237,0l0,-123l-297,0l-76,-155l0,-51l373,0z"
   id="glyph210" />
<glyph
   unicode="¦"
   horiz-adv-x="621"
   d="M387,408l0,-758l-153,0l0,758M387,1432l0,-758l-153,0l0,758z"
   id="glyph212" />
<glyph
   unicode="§"
   horiz-adv-x="921"
   d="M341,936C303,905 275,875 257,845C238,815 229,785 229,754C229,703 250,656 292,612C333,567 429,500 579,410C616,440 644,470 663,501C682,531 691,561 691,592C691,642 670,690 627,735C584,780 488,847 341,936M746,1462l0,-164C696,1324 650,1344 607,1357C564,1370 526,1376 492,1376C434,1376 389,1363 357,1336C324,1309 308,1272 308,1225C308,1165 370,1097 493,1020C509,1010 521,1002 529,997C656,918 739,852 778,801C817,750 837,690 837,623C837,563 823,510 796,463C768,416 726,375 670,340C707,305 735,270 752,234C769,197 778,158 778,115C778,20 747,-55 686,-111C625,-167 542,-195 438,-195C395,-195 350,-190 304,-180C257,-171 208,-156 155,-137l0,164C207,1 255,-18 300,-31C344,-44 383,-51 418,-51C479,-51 527,-37 561,-9C595,19 612,58 612,109C612,177 546,252 413,334l-22,14C262,428 179,494 141,545C102,596 83,655 83,723C83,784 97,838 125,886C152,933 193,973 248,1006C213,1035 186,1069 169,1106C151,1143 142,1185 142,1231C142,1318 172,1388 232,1441C292,1494 372,1520 472,1520C515,1520 560,1515 606,1506C652,1496 699,1481 746,1462z"
   id="glyph214" />
<glyph
   unicode="¨"
   horiz-adv-x="921"
   d="M545,1552l183,0l0,-202l-183,0M194,1552l182,0l0,-202l-182,0z"
   id="glyph216" />
<glyph
   unicode="©"
   horiz-adv-x="1843"
   d="M922,1485C1013,1485 1098,1467 1177,1430C1256,1393 1328,1339 1393,1266C1458,1193 1507,1113 1540,1026C1572,939 1588,844 1588,741C1588,640 1572,546 1540,459C1507,372 1458,292 1393,219C1328,146 1256,92 1177,55C1098,18 1013,0 922,0C831,0 746,18 667,55C588,92 515,146 450,219C385,292 336,372 304,459C271,546 255,640 255,741C255,844 271,939 304,1026C336,1113 385,1193 450,1266C515,1339 588,1393 667,1430C746,1467 831,1485 922,1485M922,1382C843,1382 770,1366 702,1335C634,1304 572,1257 516,1194C459,1131 417,1062 388,986C359,909 345,828 345,741C345,655 359,574 388,499C417,423 459,354 516,291C572,228 634,181 702,150C770,118 843,102 922,102C1001,102 1074,118 1143,150C1211,181 1273,228 1329,291C1385,353 1427,422 1455,497C1483,572 1497,654 1497,741C1497,830 1483,912 1455,988C1426,1063 1384,1132 1329,1194C1273,1257 1211,1304 1143,1335C1074,1366 1001,1382 922,1382M1191,1137l0,-129C1151,1030 1112,1046 1073,1057C1034,1068 994,1073 955,1073C866,1073 796,1044 746,986C695,927 670,846 670,741C670,635 696,553 747,495C798,437 871,408 964,408C1003,408 1040,413 1077,424C1113,434 1151,450 1191,473l0,-127C1150,327 1110,312 1069,303C1028,294 986,289 944,289C815,289 712,330 637,411C562,492 524,602 524,741C524,880 562,990 637,1071C712,1152 815,1192 944,1192C988,1192 1030,1187 1071,1178C1112,1169 1152,1155 1191,1137z"
   id="glyph218" />
<glyph
   unicode="ª"
   horiz-adv-x="868"
   d="M125,592l619,0l0,-123l-619,0M742,1165l0,-448l-134,0l0,112C582,787 547,755 504,732C461,709 411,698 356,698C279,698 217,721 172,766C127,811 104,871 104,946C104,1036 133,1104 190,1150C247,1196 332,1219 445,1219l163,0l0,4C608,1284 591,1329 556,1360C521,1390 468,1405 398,1405C361,1405 322,1399 281,1388C240,1377 199,1360 158,1337l0,127C202,1483 246,1497 290,1506C333,1515 376,1520 417,1520C526,1520 608,1491 662,1432C715,1373 742,1284 742,1165M494,1104C397,1104 330,1093 293,1071C255,1048 236,1011 236,958C236,915 251,881 280,856C309,830 349,817 398,817C460,817 511,841 550,889C589,937 608,999 608,1075l0,29z"
   id="glyph220" />
<glyph
   unicode="«"
   horiz-adv-x="1127"
   d="M955,1059l0,-191l-271,-268l271,-268l0,-191l-422,418l0,82M564,1059l0,-191l-271,-268l271,-268l0,-191l-422,418l0,82z"
   id="glyph222" />
<glyph
   unicode="¬"
   horiz-adv-x="1544"
   d="M195,862l1154,0l0,-575l-151,0l0,405l-1003,0z"
   id="glyph224" />
<glyph
   unicode="­"
   horiz-adv-x="665"
   d="M90,643l485,0l0,-164l-485,0z"
   id="glyph226" />
<glyph
   unicode="®"
   horiz-adv-x="1843"
   d="M922,1382C843,1382 770,1366 702,1335C634,1304 572,1257 516,1194C459,1131 417,1062 388,986C359,909 345,828 345,741C345,655 359,574 388,499C417,423 459,354 516,291C572,228 634,181 702,150C770,118 843,102 922,102C1001,102 1074,118 1143,150C1211,181 1273,228 1329,291C1385,353 1427,422 1455,497C1483,572 1497,654 1497,741C1497,830 1483,912 1455,988C1426,1063 1384,1132 1329,1194C1273,1257 1211,1304 1143,1335C1074,1366 1001,1382 922,1382M922,1485C1013,1485 1098,1467 1177,1430C1256,1393 1328,1339 1393,1266C1458,1193 1507,1113 1540,1026C1572,939 1588,844 1588,741C1588,640 1572,546 1540,459C1507,372 1458,292 1393,219C1328,146 1256,92 1177,55C1098,18 1013,0 922,0C831,0 746,18 667,55C588,92 515,146 450,219C385,292 336,372 304,459C271,546 255,640 255,741C255,844 271,939 304,1026C336,1113 385,1193 450,1266C515,1339 588,1393 667,1430C746,1467 831,1485 922,1485M897,1071l-110,0l0,-276l110,0C963,795 1009,805 1036,826C1062,847 1075,882 1075,932C1075,983 1062,1019 1035,1040C1008,1061 962,1071 897,1071M904,1174C1009,1174 1088,1154 1141,1115C1193,1075 1219,1015 1219,934C1219,877 1203,829 1172,792C1140,755 1095,730 1038,719C1052,714 1069,698 1090,673C1110,647 1134,610 1161,561l123,-223l-154,0l-117,209C978,611 949,652 928,669C906,686 879,694 846,694l-59,0l0,-356l-140,0l0,836z"
   id="glyph228" />
<glyph
   unicode="¯"
   horiz-adv-x="921"
   d="M192,1526l538,0l0,-148l-538,0z"
   id="glyph230" />
<glyph
   unicode="°"
   horiz-adv-x="921"
   d="M461,1391C413,1391 373,1373 340,1336C307,1299 290,1253 290,1200C290,1147 307,1103 340,1067C373,1030 413,1012 461,1012C509,1012 550,1030 583,1067C616,1103 632,1147 632,1200C632,1253 615,1298 582,1335C549,1372 508,1391 461,1391M461,1520C499,1520 536,1512 572,1496C607,1479 638,1456 663,1425C691,1395 712,1361 726,1323C739,1285 746,1244 746,1200C746,1112 718,1038 663,977C608,916 540,885 459,885C378,885 311,915 257,975C203,1035 176,1110 176,1200C176,1289 204,1365 259,1427C314,1489 381,1520 461,1520z"
   id="glyph232" />
<glyph
   unicode="±"
   horiz-adv-x="1544"
   d="M848,1284l0,-387l501,0l0,-170l-501,0l0,-387l-151,0l0,387l-502,0l0,170l502,0l0,387M195,170l1154,0l0,-170l-1154,0z"
   id="glyph234" />
<glyph
   unicode="²"
   horiz-adv-x="738"
   d="M241,782l382,0l0,-114l-538,0l0,110C105,799 134,828 172,865C379,1068 482,1201 482,1264C482,1308 466,1344 435,1371C404,1398 362,1411 311,1411C280,1411 247,1405 210,1394C173,1382 133,1364 90,1341l0,123C136,1483 179,1497 219,1506C259,1515 296,1520 330,1520C417,1520 487,1498 539,1454C591,1410 617,1352 617,1280C617,1187 518,1046 320,857C286,825 260,800 241,782z"
   id="glyph236" />
<glyph
   unicode="³"
   horiz-adv-x="738"
   d="M472,1120C527,1108 569,1084 600,1048C630,1011 645,966 645,911C645,828 617,765 560,720C503,675 421,653 315,653C281,653 245,657 208,664C170,671 130,681 88,694l0,121C119,797 153,784 189,775C224,766 262,762 302,762C367,762 418,775 454,802C490,828 508,864 508,911C508,960 492,998 459,1023C426,1048 376,1061 311,1061l-77,0l0,108l85,0C375,1169 418,1180 447,1201C476,1222 490,1252 490,1292C490,1331 475,1360 445,1381C415,1401 372,1411 315,1411C291,1411 264,1408 233,1402C202,1396 163,1385 114,1370l0,115C158,1496 199,1505 238,1511C276,1517 312,1520 345,1520C431,1520 499,1500 550,1461C601,1422 626,1369 626,1303C626,1257 613,1218 586,1186C559,1154 521,1132 472,1120z"
   id="glyph238" />
<glyph
   unicode="´"
   horiz-adv-x="921"
   d="M586,1638l179,0l-293,-376l-138,0z"
   id="glyph240" />
<glyph
   unicode="µ"
   horiz-adv-x="1172"
   d="M157,-426l0,1546l165,0l0,-696C322,327 343,254 384,205C425,156 487,131 568,131C657,131 723,159 768,215C813,271 835,355 835,467l0,653l166,0l0,-862C1001,218 1006,189 1017,170C1027,151 1043,141 1066,141C1071,141 1079,143 1088,147C1097,150 1111,156 1128,164l0,-148C1103,1 1080,-11 1058,-18C1036,-25 1015,-29 994,-29C953,-29 920,-16 895,10C870,36 853,76 844,129C814,76 777,37 734,11C691,-16 639,-29 580,-29C519,-29 468,-16 425,10C382,36 347,75 322,127l0,-553z"
   id="glyph242" />
<glyph
   unicode="¶"
   horiz-adv-x="1172"
   d="M570,1493l403,0l0,-1690l-127,0l0,1567l-171,0l0,-1567l-128,0l0,846C418,660 319,703 248,777C177,850 142,948 142,1071C142,1198 181,1300 259,1377C337,1454 441,1493 570,1493z"
   id="glyph244" />
<glyph
   unicode="·"
   horiz-adv-x="585"
   d="M197,838l190,0l0,-254l-190,0z"
   id="glyph246" />
<glyph
   unicode="¸"
   horiz-adv-x="921"
   d="M536,0C569,-41 594,-79 610,-114C626,-149 634,-183 634,-215C634,-274 616,-319 580,-349C544,-380 491,-395 420,-395C393,-395 366,-393 340,-389C314,-385 288,-379 262,-371l0,131C282,-251 303,-259 326,-264C348,-269 373,-272 401,-272C436,-272 463,-264 481,-248C499,-232 508,-209 508,-178C508,-158 502,-133 489,-104C476,-75 456,-41 429,0z"
   id="glyph248" />
<glyph
   unicode="¹"
   horiz-adv-x="738"
   d="M140,778l184,0l0,611l-201,-41l0,116l207,39l124,0l0,-725l184,0l0,-110l-498,0z"
   id="glyph250" />
<glyph
   unicode="º"
   horiz-adv-x="868"
   d="M125,592l619,0l0,-123l-619,0M435,1520C542,1520 627,1483 689,1410C750,1336 781,1235 781,1108C781,981 750,881 689,808C627,735 542,698 435,698C328,698 243,735 180,808C117,881 86,981 86,1108C86,1235 117,1336 180,1410C243,1483 328,1520 435,1520M435,1405C372,1405 321,1378 284,1325C246,1271 227,1199 227,1108C227,1019 246,948 284,895C322,842 372,815 435,815C498,815 548,842 586,895C623,948 642,1019 642,1108C642,1199 623,1272 586,1325C549,1378 498,1405 435,1405z"
   id="glyph252" />
<glyph
   unicode="»"
   horiz-adv-x="1127"
   d="M174,1059l422,-418l0,-82l-422,-418l0,191l271,268l-271,268M564,1059l422,-418l0,-82l-422,-418l0,191l271,268l-271,268z"
   id="glyph254" />
<glyph
   unicode="¼"
   horiz-adv-x="1786"
   d="M140,778l184,0l0,611l-201,-41l0,116l207,39l124,0l0,-725l184,0l0,-110l-498,0M1476,714l-278,-419l278,0M1457,835l149,0l0,-540l121,0l0,-109l-121,0l0,-186l-130,0l0,186l-372,0l0,121M1240,1520l144,0l-839,-1549l-144,0z"
   id="glyph256" />
<glyph
   unicode="½"
   horiz-adv-x="1786"
   d="M140,778l184,0l0,611l-201,-41l0,116l207,39l124,0l0,-725l184,0l0,-110l-498,0M1288,114l382,0l0,-114l-538,0l0,110C1152,131 1181,160 1219,197C1426,400 1529,533 1529,596C1529,640 1513,676 1482,703C1451,730 1409,743 1358,743C1327,743 1294,737 1257,726C1220,714 1180,696 1137,673l0,123C1183,815 1226,829 1266,838C1306,847 1343,852 1377,852C1464,852 1534,830 1586,786C1638,742 1664,684 1664,612C1664,519 1565,378 1367,189C1333,157 1307,132 1288,114M1240,1520l144,0l-839,-1549l-144,0z"
   id="glyph258" />
<glyph
   unicode="¾"
   horiz-adv-x="1786"
   d="M472,1120C527,1108 569,1084 600,1048C630,1011 645,966 645,911C645,828 617,765 560,720C503,675 421,653 315,653C281,653 245,657 208,664C170,671 130,681 88,694l0,121C119,797 153,784 189,775C224,766 262,762 302,762C367,762 418,775 454,802C490,828 508,864 508,911C508,960 492,998 459,1023C426,1048 376,1061 311,1061l-77,0l0,108l85,0C375,1169 418,1180 447,1201C476,1222 490,1252 490,1292C490,1331 475,1360 445,1381C415,1401 372,1411 315,1411C291,1411 264,1408 233,1402C202,1396 163,1385 114,1370l0,115C158,1496 199,1505 238,1511C276,1517 312,1520 345,1520C431,1520 499,1500 550,1461C601,1422 626,1369 626,1303C626,1257 613,1218 586,1186C559,1154 521,1132 472,1120M1476,714l-278,-419l278,0M1457,835l149,0l0,-540l121,0l0,-109l-121,0l0,-186l-130,0l0,186l-372,0l0,121M1240,1520l144,0l-839,-1549l-144,0z"
   id="glyph260" />
<glyph
   unicode="¿"
   horiz-adv-x="978"
   d="M450,1092l171,0l0,-156C621,869 613,813 597,770C580,727 545,676 490,618l-80,-88C375,495 349,461 334,430C319,399 311,367 311,334C311,275 331,227 370,190C409,153 462,135 527,135C574,135 625,147 679,170C733,193 789,227 846,272l0,-188C789,46 732,18 675,-1C618,-20 558,-29 496,-29C385,-29 297,3 230,68C163,133 129,218 129,324C129,375 140,423 162,469C183,514 221,566 274,623l80,86C383,740 403,765 414,783C425,800 433,817 438,834C443,848 446,865 448,885C449,905 450,933 450,969M626,1239l-181,0l0,254l181,0z"
   id="glyph262" />
<glyph
   unicode="À"
   horiz-adv-x="1260"
   d="M630,1294l-247,-743l495,0M527,1493l207,0l512,-1493l-189,0l-123,383l-606,0l-122,-383l-192,0M579,1899l176,-264l-137,0l-207,264z"
   id="glyph264" />
<glyph
   unicode="Á"
   horiz-adv-x="1260"
   d="M630,1294l-247,-743l495,0M527,1493l207,0l512,-1493l-189,0l-123,383l-606,0l-122,-383l-192,0M680,1899l166,0l-205,-264l-138,0z"
   id="glyph266" />
<glyph
   unicode="Â"
   horiz-adv-x="1260"
   d="M630,1294l-247,-743l495,0M527,1493l207,0l512,-1493l-189,0l-123,383l-606,0l-122,-383l-192,0M546,1901l169,0l190,-266l-125,0l-150,178l-149,-178l-125,0z"
   id="glyph268" />
<glyph
   unicode="Ã"
   horiz-adv-x="1260"
   d="M630,1294l-247,-743l495,0M527,1493l207,0l512,-1493l-189,0l-123,383l-606,0l-122,-383l-192,0M627,1710l-52,33C560,1752 548,1759 539,1763C530,1766 521,1768 514,1768C493,1768 476,1760 464,1743C452,1726 446,1703 446,1673l0,-6l-113,0C333,1734 349,1788 380,1827C411,1866 452,1886 503,1886C525,1886 545,1883 564,1878C582,1873 605,1861 634,1843l51,-30C699,1804 711,1798 721,1794C731,1790 741,1788 750,1788C769,1788 785,1797 797,1814C809,1831 815,1853 815,1880l0,6l112,0C926,1819 910,1766 879,1727C848,1687 808,1667 757,1667C737,1667 718,1670 700,1675C682,1680 658,1692 627,1710z"
   id="glyph270" />
<glyph
   unicode="Ä"
   horiz-adv-x="1260"
   d="M630,1294l-247,-743l495,0M527,1493l207,0l512,-1493l-189,0l-123,383l-606,0l-122,-383l-192,0M715,1870l182,0l0,-203l-182,0M363,1870l183,0l0,-203l-183,0z"
   id="glyph272" />
<glyph
   unicode="Å"
   horiz-adv-x="1260"
   d="M767,1626C767,1668 754,1704 727,1734C700,1763 668,1778 630,1778C591,1778 559,1764 533,1735C507,1706 494,1669 494,1626C494,1584 507,1548 534,1519C560,1490 592,1475 630,1475C668,1475 700,1490 727,1519C754,1548 767,1584 767,1626M630,1294l-245,-743l491,0M494,1397C457,1424 430,1457 411,1496C392,1534 383,1577 383,1626C383,1703 407,1768 455,1821C502,1874 561,1901 630,1901C699,1901 757,1874 806,1821C854,1767 878,1702 878,1626C878,1579 869,1536 850,1497C831,1458 803,1424 767,1397l479,-1397l-189,0l-123,383l-606,0l-122,-383l-192,0z"
   id="glyph274" />
<glyph
   unicode="Æ"
   horiz-adv-x="1795"
   d="M1660,1493l0,-170l-666,0l0,-442l640,0l0,-170l-640,0l0,-541l684,0l0,-170l-867,0l0,383l-475,0l-144,-383l-185,0l563,1493M695,1335l-297,-784l413,0l0,784z"
   id="glyph276" />
<glyph
   unicode="Ç"
   horiz-adv-x="1287"
   d="M1187,1378l0,-213C1126,1228 1060,1276 991,1307C922,1338 848,1354 770,1354C617,1354 499,1302 418,1198C336,1093 295,942 295,745C295,548 336,398 418,294C499,189 617,137 770,137C848,137 922,153 991,184C1060,215 1126,263 1187,326l0,-211C1124,67 1056,31 985,7C914,-17 839,-29 760,-29C556,-29 396,40 279,179C162,317 104,506 104,745C104,985 162,1174 279,1313C396,1451 556,1520 760,1520C840,1520 916,1508 987,1485C1058,1461 1125,1425 1187,1378M807,0C840,-41 865,-79 881,-114C897,-149 905,-183 905,-215C905,-274 887,-319 851,-349C815,-380 762,-395 691,-395C664,-395 637,-393 611,-389C585,-385 559,-379 533,-371l0,131C553,-251 574,-259 597,-264C619,-269 644,-272 672,-272C707,-272 734,-264 752,-248C770,-232 779,-209 779,-178C779,-158 773,-133 760,-104C747,-75 727,-41 700,0z"
   id="glyph278" />
<glyph
   unicode="È"
   horiz-adv-x="1164"
   d="M181,1493l849,0l0,-170l-667,0l0,-442l640,0l0,-170l-640,0l0,-541l684,0l0,-170l-866,0M552,1899l176,-264l-137,0l-207,264z"
   id="glyph280" />
<glyph
   unicode="É"
   horiz-adv-x="1164"
   d="M181,1493l849,0l0,-170l-667,0l0,-442l640,0l0,-170l-640,0l0,-541l684,0l0,-170l-866,0M653,1899l166,0l-205,-264l-138,0z"
   id="glyph282" />
<glyph
   unicode="Ê"
   horiz-adv-x="1164"
   d="M181,1493l849,0l0,-170l-667,0l0,-442l640,0l0,-170l-640,0l0,-541l684,0l0,-170l-866,0M519,1901l169,0l190,-266l-125,0l-150,178l-149,-178l-125,0z"
   id="glyph284" />
<glyph
   unicode="Ë"
   horiz-adv-x="1164"
   d="M181,1493l849,0l0,-170l-667,0l0,-442l640,0l0,-170l-640,0l0,-541l684,0l0,-170l-866,0M688,1870l182,0l0,-203l-182,0M336,1870l183,0l0,-203l-183,0z"
   id="glyph286" />
<glyph
   unicode="Ì"
   horiz-adv-x="543"
   d="M181,1493l182,0l0,-1493l-182,0M222,1899l176,-264l-137,0l-207,264z"
   id="glyph288" />
<glyph
   unicode="Í"
   horiz-adv-x="543"
   d="M181,1493l182,0l0,-1493l-182,0M323,1899l166,0l-205,-264l-138,0z"
   id="glyph290" />
<glyph
   unicode="Î"
   horiz-adv-x="543"
   d="M181,1493l182,0l0,-1493l-182,0M189,1901l169,0l190,-266l-125,0l-150,178l-149,-178l-125,0z"
   id="glyph292" />
<glyph
   unicode="Ï"
   horiz-adv-x="543"
   d="M181,1493l182,0l0,-1493l-182,0M358,1870l182,0l0,-203l-182,0M6,1870l183,0l0,-203l-183,0z"
   id="glyph294" />
<glyph
   unicode="Ð"
   horiz-adv-x="1428"
   d="M190,1493l374,0C824,1493 1015,1433 1137,1313C1258,1192 1319,1004 1319,748C1319,491 1258,302 1136,181C1014,60 823,0 564,0l-374,0l0,700l-181,0l0,144l181,0M373,1327l0,-483l302,0l0,-144l-302,0l0,-534l218,0C776,166 912,213 999,306C1085,399 1128,547 1128,748C1128,948 1085,1095 999,1188C912,1281 776,1327 591,1327z"
   id="glyph296" />
<glyph
   unicode="Ñ"
   horiz-adv-x="1378"
   d="M181,1493l245,0l596,-1249l0,1249l176,0l0,-1493l-245,0l-596,1249l0,-1249l-176,0M686,1710l-52,33C619,1752 607,1759 598,1763C589,1766 580,1768 573,1768C552,1768 535,1760 523,1743C511,1726 505,1703 505,1673l0,-6l-113,0C392,1734 408,1788 439,1827C470,1866 511,1886 562,1886C584,1886 604,1883 623,1878C641,1873 664,1861 693,1843l51,-30C758,1804 770,1798 780,1794C790,1790 800,1788 809,1788C828,1788 844,1797 856,1814C868,1831 874,1853 874,1880l0,6l112,0C985,1819 969,1766 938,1727C907,1687 867,1667 816,1667C796,1667 777,1670 759,1675C741,1680 717,1692 686,1710z"
   id="glyph298" />
<glyph
   unicode="Ò"
   horiz-adv-x="1450"
   d="M726,1356C594,1356 489,1301 412,1192C334,1083 295,934 295,745C295,557 334,408 412,299C489,190 594,135 726,135C858,135 963,190 1040,299C1117,408 1156,557 1156,745C1156,934 1117,1083 1040,1192C963,1301 858,1356 726,1356M726,1520C915,1520 1065,1450 1178,1310C1291,1169 1347,981 1347,745C1347,510 1291,322 1178,182C1065,41 915,-29 726,-29C537,-29 387,41 274,181C161,321 104,509 104,745C104,981 161,1169 274,1310C387,1450 537,1520 726,1520M675,1899l176,-264l-137,0l-207,264z"
   id="glyph300" />
<glyph
   unicode="Ó"
   horiz-adv-x="1450"
   d="M726,1356C594,1356 489,1301 412,1192C334,1083 295,934 295,745C295,557 334,408 412,299C489,190 594,135 726,135C858,135 963,190 1040,299C1117,408 1156,557 1156,745C1156,934 1117,1083 1040,1192C963,1301 858,1356 726,1356M726,1520C915,1520 1065,1450 1178,1310C1291,1169 1347,981 1347,745C1347,510 1291,322 1178,182C1065,41 915,-29 726,-29C537,-29 387,41 274,181C161,321 104,509 104,745C104,981 161,1169 274,1310C387,1450 537,1520 726,1520M776,1899l166,0l-205,-264l-138,0z"
   id="glyph302" />
<glyph
   unicode="Ô"
   horiz-adv-x="1450"
   d="M726,1356C594,1356 489,1301 412,1192C334,1083 295,934 295,745C295,557 334,408 412,299C489,190 594,135 726,135C858,135 963,190 1040,299C1117,408 1156,557 1156,745C1156,934 1117,1083 1040,1192C963,1301 858,1356 726,1356M726,1520C915,1520 1065,1450 1178,1310C1291,1169 1347,981 1347,745C1347,510 1291,322 1178,182C1065,41 915,-29 726,-29C537,-29 387,41 274,181C161,321 104,509 104,745C104,981 161,1169 274,1310C387,1450 537,1520 726,1520M642,1901l169,0l190,-266l-125,0l-150,178l-149,-178l-125,0z"
   id="glyph304" />
<glyph
   unicode="Õ"
   horiz-adv-x="1450"
   d="M726,1356C594,1356 489,1301 412,1192C334,1083 295,934 295,745C295,557 334,408 412,299C489,190 594,135 726,135C858,135 963,190 1040,299C1117,408 1156,557 1156,745C1156,934 1117,1083 1040,1192C963,1301 858,1356 726,1356M726,1520C915,1520 1065,1450 1178,1310C1291,1169 1347,981 1347,745C1347,510 1291,322 1178,182C1065,41 915,-29 726,-29C537,-29 387,41 274,181C161,321 104,509 104,745C104,981 161,1169 274,1310C387,1450 537,1520 726,1520M723,1710l-52,33C656,1752 644,1759 635,1763C626,1766 617,1768 610,1768C589,1768 572,1760 560,1743C548,1726 542,1703 542,1673l0,-6l-113,0C429,1734 445,1788 476,1827C507,1866 548,1886 599,1886C621,1886 641,1883 660,1878C678,1873 701,1861 730,1843l51,-30C795,1804 807,1798 817,1794C827,1790 837,1788 846,1788C865,1788 881,1797 893,1814C905,1831 911,1853 911,1880l0,6l112,0C1022,1819 1006,1766 975,1727C944,1687 904,1667 853,1667C833,1667 814,1670 796,1675C778,1680 754,1692 723,1710z"
   id="glyph306" />
<glyph
   unicode="Ö"
   horiz-adv-x="1450"
   d="M726,1356C594,1356 489,1301 412,1192C334,1083 295,934 295,745C295,557 334,408 412,299C489,190 594,135 726,135C858,135 963,190 1040,299C1117,408 1156,557 1156,745C1156,934 1117,1083 1040,1192C963,1301 858,1356 726,1356M726,1520C915,1520 1065,1450 1178,1310C1291,1169 1347,981 1347,745C1347,510 1291,322 1178,182C1065,41 915,-29 726,-29C537,-29 387,41 274,181C161,321 104,509 104,745C104,981 161,1169 274,1310C387,1450 537,1520 726,1520M811,1870l182,0l0,-203l-182,0M459,1870l183,0l0,-203l-183,0z"
   id="glyph308" />
<glyph
   unicode="×"
   horiz-adv-x="1544"
   d="M1292,1100l-411,-459l411,-457l-107,-121l-413,459l-413,-459l-106,121l410,457l-410,459l106,121l413,-459l413,459z"
   id="glyph310" />
<glyph
   unicode="Ø"
   horiz-adv-x="1450"
   d="M1085,1112l-645,-846C477,223 520,191 569,169C617,146 669,135 726,135C858,135 963,190 1040,299C1117,408 1156,557 1156,745C1156,820 1150,888 1138,949C1126,1010 1108,1065 1085,1112M1012,1225C975,1268 933,1300 885,1323C836,1345 783,1356 726,1356C594,1356 489,1301 412,1192C334,1083 295,934 295,745C295,670 301,602 313,539C324,476 342,422 365,377M245,219C198,287 163,365 140,453C116,541 104,638 104,745C104,981 161,1169 274,1310C387,1450 537,1520 726,1520C804,1520 876,1507 943,1482C1009,1456 1068,1418 1120,1368l146,191l92,-89l-153,-198C1252,1203 1287,1125 1311,1036C1335,947 1347,850 1347,745C1347,510 1291,322 1178,182C1065,41 915,-29 726,-29C649,-29 578,-16 512,9C445,34 385,71 330,121l-146,-191l-92,88z"
   id="glyph312" />
<glyph
   unicode="Ù"
   horiz-adv-x="1349"
   d="M160,1493l183,0l0,-907C343,426 369,311 422,241C474,170 558,135 675,135C792,135 876,170 928,241C980,311 1006,426 1006,586l0,907l183,0l0,-932C1189,366 1146,219 1059,120C972,21 844,-29 675,-29C505,-29 377,21 290,120C203,219 160,366 160,561M624,1899l176,-264l-137,0l-207,264z"
   id="glyph314" />
<glyph
   unicode="Ú"
   horiz-adv-x="1349"
   d="M160,1493l183,0l0,-907C343,426 369,311 422,241C474,170 558,135 675,135C792,135 876,170 928,241C980,311 1006,426 1006,586l0,907l183,0l0,-932C1189,366 1146,219 1059,120C972,21 844,-29 675,-29C505,-29 377,21 290,120C203,219 160,366 160,561M725,1899l166,0l-205,-264l-138,0z"
   id="glyph316" />
<glyph
   unicode="Û"
   horiz-adv-x="1349"
   d="M160,1493l183,0l0,-907C343,426 369,311 422,241C474,170 558,135 675,135C792,135 876,170 928,241C980,311 1006,426 1006,586l0,907l183,0l0,-932C1189,366 1146,219 1059,120C972,21 844,-29 675,-29C505,-29 377,21 290,120C203,219 160,366 160,561M591,1901l169,0l190,-266l-125,0l-150,178l-149,-178l-125,0z"
   id="glyph318" />
<glyph
   unicode="Ü"
   horiz-adv-x="1349"
   d="M160,1493l183,0l0,-907C343,426 369,311 422,241C474,170 558,135 675,135C792,135 876,170 928,241C980,311 1006,426 1006,586l0,907l183,0l0,-932C1189,366 1146,219 1059,120C972,21 844,-29 675,-29C505,-29 377,21 290,120C203,219 160,366 160,561M760,1870l182,0l0,-203l-182,0M408,1870l183,0l0,-203l-183,0z"
   id="glyph320" />
<glyph
   unicode="Ý"
   horiz-adv-x="1125"
   d="M-3,1493l196,0l372,-614l370,614l196,0l-476,-782l0,-711l-182,0l0,711M615,1899l166,0l-205,-264l-138,0z"
   id="glyph322" />
<glyph
   unicode="Þ"
   horiz-adv-x="1115"
   d="M181,1493l182,0l0,-264l228,0C742,1229 856,1192 933,1117C1010,1042 1048,931 1048,784C1048,637 1010,526 933,451C856,376 742,338 591,338l-228,0l0,-338l-182,0M363,1063l0,-559l228,0C676,504 741,528 788,577C834,626 857,695 857,784C857,873 834,942 788,991C742,1039 676,1063 591,1063z"
   id="glyph324" />
<glyph
   unicode="ß"
   horiz-adv-x="1161"
   d="M167,1137C167,1270 203,1374 275,1447C346,1520 448,1556 579,1556C704,1556 799,1517 865,1440C930,1363 964,1249 966,1100C875,1095 805,1073 755,1035C704,996 679,945 679,881C679,850 688,821 705,794C722,767 750,739 789,711l52,-37C940,603 1004,544 1033,497C1062,450 1076,393 1076,326C1076,211 1042,124 975,63C908,2 811,-29 684,-29C645,-29 606,-25 565,-16C524,-8 482,4 438,20l0,164C486,164 531,149 573,140C615,130 656,125 695,125C764,125 817,141 853,173C889,204 907,250 907,311C907,353 898,388 881,416C863,444 824,479 763,520l-83,55C623,614 581,657 555,702C529,747 516,799 516,860C516,945 541,1016 591,1073C641,1130 711,1169 802,1188C797,1257 775,1310 736,1347C697,1384 643,1403 575,1403C497,1403 438,1380 397,1334C356,1287 336,1220 336,1133l0,-1133l-169,0z"
   id="glyph326" />
<glyph
   unicode="à"
   horiz-adv-x="1129"
   d="M632,563C498,563 405,546 354,512C302,478 276,420 276,338C276,273 295,221 334,183C373,144 425,125 492,125C584,125 658,161 713,234C768,306 796,402 796,522l0,41M962,639l0,-639l-166,0l0,170C759,102 712,52 656,20C599,-13 530,-29 448,-29C345,-29 263,3 202,68C141,132 111,218 111,326C111,452 149,547 225,611C300,675 413,707 564,707l232,0l0,18C796,810 771,875 721,922C671,968 601,991 510,991C453,991 397,983 342,968C287,953 235,930 184,899l0,170C245,1095 304,1115 361,1128C418,1141 473,1147 527,1147C673,1147 782,1105 854,1021C926,937 962,810 962,639M404,1638l254,-374l-138,0l-293,374z"
   id="glyph328" />
<glyph
   unicode="á"
   horiz-adv-x="1129"
   d="M632,563C498,563 405,546 354,512C302,478 276,420 276,338C276,273 295,221 334,183C373,144 425,125 492,125C584,125 658,161 713,234C768,306 796,402 796,522l0,41M962,639l0,-639l-166,0l0,170C759,102 712,52 656,20C599,-13 530,-29 448,-29C345,-29 263,3 202,68C141,132 111,218 111,326C111,452 149,547 225,611C300,675 413,707 564,707l232,0l0,18C796,810 771,875 721,922C671,968 601,991 510,991C453,991 397,983 342,968C287,953 235,930 184,899l0,170C245,1095 304,1115 361,1128C418,1141 473,1147 527,1147C673,1147 782,1105 854,1021C926,937 962,810 962,639M660,1638l179,0l-293,-376l-138,0z"
   id="glyph330" />
<glyph
   unicode="â"
   horiz-adv-x="1129"
   d="M632,563C498,563 405,546 354,512C302,478 276,420 276,338C276,273 295,221 334,183C373,144 425,125 492,125C584,125 658,161 713,234C768,306 796,402 796,522l0,41M962,639l0,-639l-166,0l0,170C759,102 712,52 656,20C599,-13 530,-29 448,-29C345,-29 263,3 202,68C141,132 111,218 111,326C111,452 149,547 225,611C300,675 413,707 564,707l232,0l0,18C796,810 771,875 721,922C671,968 601,991 510,991C453,991 397,983 342,968C287,953 235,930 184,899l0,170C245,1095 304,1115 361,1128C418,1141 473,1147 527,1147C673,1147 782,1105 854,1021C926,937 962,810 962,639M468,1638l133,0l221,-376l-125,0l-162,245l-162,-245l-125,0z"
   id="glyph332" />
<glyph
   unicode="ã"
   horiz-adv-x="1129"
   d="M632,563C498,563 405,546 354,512C302,478 276,420 276,338C276,273 295,221 334,183C373,144 425,125 492,125C584,125 658,161 713,234C768,306 796,402 796,522l0,41M962,639l0,-639l-166,0l0,170C759,102 712,52 656,20C599,-13 530,-29 448,-29C345,-29 263,3 202,68C141,132 111,218 111,326C111,452 149,547 225,611C300,675 413,707 564,707l232,0l0,18C796,810 771,875 721,922C671,968 601,991 510,991C453,991 397,983 342,968C287,953 235,930 184,899l0,170C245,1095 304,1115 361,1128C418,1141 473,1147 527,1147C673,1147 782,1105 854,1021C926,937 962,810 962,639M531,1370l-51,55C467,1438 455,1448 445,1455C435,1461 426,1464 419,1464C396,1464 379,1452 368,1428C357,1403 351,1364 350,1309l-112,0C239,1399 255,1469 286,1518C316,1567 358,1591 413,1591C436,1591 458,1586 477,1577C496,1568 516,1552 538,1530l52,-55C603,1462 615,1452 625,1446C634,1439 643,1436 651,1436C674,1436 691,1448 702,1473C713,1497 718,1536 719,1591l113,0C831,1501 815,1432 784,1383C753,1334 711,1309 656,1309C633,1309 612,1314 593,1323C574,1332 553,1348 531,1370z"
   id="glyph334" />
<glyph
   unicode="ä"
   horiz-adv-x="1129"
   d="M632,563C498,563 405,546 354,512C302,478 276,420 276,338C276,273 295,221 334,183C373,144 425,125 492,125C584,125 658,161 713,234C768,306 796,402 796,522l0,41M962,639l0,-639l-166,0l0,170C759,102 712,52 656,20C599,-13 530,-29 448,-29C345,-29 263,3 202,68C141,132 111,218 111,326C111,452 149,547 225,611C300,675 413,707 564,707l232,0l0,18C796,810 771,875 721,922C671,968 601,991 510,991C453,991 397,983 342,968C287,953 235,930 184,899l0,170C245,1095 304,1115 361,1128C418,1141 473,1147 527,1147C673,1147 782,1105 854,1021C926,937 962,810 962,639M619,1552l183,0l0,-202l-183,0M268,1552l182,0l0,-202l-182,0z"
   id="glyph336" />
<glyph
   unicode="å"
   horiz-adv-x="1129"
   d="M632,563C498,563 405,546 354,512C302,478 276,420 276,338C276,273 295,221 334,183C373,144 425,125 492,125C584,125 658,161 713,234C768,306 796,402 796,522l0,41M962,639l0,-639l-166,0l0,170C759,102 712,52 656,20C599,-13 530,-29 448,-29C345,-29 263,3 202,68C141,132 111,218 111,326C111,452 149,547 225,611C300,675 413,707 564,707l232,0l0,18C796,810 771,875 721,922C671,968 601,991 510,991C453,991 397,983 342,968C287,953 235,930 184,899l0,170C245,1095 304,1115 361,1128C418,1141 473,1147 527,1147C673,1147 782,1105 854,1021C926,937 962,810 962,639M672,1524C672,1566 659,1602 632,1631C605,1660 573,1675 535,1675C496,1675 463,1661 437,1632C411,1603 398,1567 398,1524C398,1481 411,1445 437,1416C463,1387 496,1372 535,1372C573,1372 605,1387 632,1416C659,1445 672,1481 672,1524M781,1524C781,1447 757,1382 710,1329C662,1276 604,1249 535,1249C466,1249 407,1276 360,1329C312,1382 288,1447 288,1524C288,1601 312,1666 360,1719C407,1772 466,1798 535,1798C604,1798 662,1772 710,1719C757,1666 781,1601 781,1524z"
   id="glyph338" />
<glyph
   unicode="æ"
   horiz-adv-x="1809"
   d="M1546,660C1545,761 1520,841 1471,901C1422,961 1356,991 1274,991C1182,991 1108,962 1053,904C997,846 965,764 957,659M896,963C940,1023 994,1069 1058,1100C1121,1131 1193,1147 1272,1147C1407,1147 1515,1099 1594,1002C1673,905 1713,773 1713,606l0,-90l-762,0C958,389 993,292 1054,225C1115,158 1201,125 1310,125C1373,125 1434,134 1494,152C1554,169 1614,196 1674,231l0,-174C1614,29 1553,8 1491,-7C1428,-22 1365,-29 1301,-29C1201,-29 1114,-9 1040,32C965,72 905,132 859,211C815,131 761,71 696,31C631,-9 555,-29 470,-29C357,-29 269,2 206,65C143,127 111,214 111,326C111,452 149,547 225,611C300,675 413,707 564,707l232,0l0,18C796,810 771,875 721,922C671,968 601,991 510,991C453,991 397,983 342,968C287,953 235,930 184,899l0,170C245,1095 304,1115 361,1128C418,1141 473,1147 527,1147C612,1147 687,1131 751,1099C815,1067 863,1022 896,963M632,563C498,563 405,546 354,512C302,478 276,420 276,338C276,273 295,221 334,183C373,144 425,125 492,125C584,125 658,161 713,234C768,306 796,402 796,522l0,41z"
   id="glyph340" />
<glyph
   unicode="ç"
   horiz-adv-x="1013"
   d="M899,1077l0,-172C852,934 806,955 759,970C712,984 664,991 616,991C508,991 424,953 365,878C306,802 276,696 276,559C276,422 306,316 365,241C424,165 508,127 616,127C664,127 712,134 759,149C806,163 852,184 899,213l0,-170C853,19 805,1 756,-11C706,-23 653,-29 598,-29C446,-29 325,24 236,130C147,236 102,379 102,559C102,742 147,885 238,990C328,1095 451,1147 608,1147C659,1147 709,1141 758,1130C807,1118 854,1100 899,1077M665,0C698,-41 723,-79 739,-114C755,-149 763,-183 763,-215C763,-274 745,-319 709,-349C673,-380 620,-395 549,-395C522,-395 495,-393 469,-389C443,-385 417,-379 391,-371l0,131C411,-251 432,-259 455,-264C477,-269 502,-272 530,-272C565,-272 592,-264 610,-248C628,-232 637,-209 637,-178C637,-158 631,-133 618,-104C605,-75 585,-41 558,0z"
   id="glyph342" />
<glyph
   unicode="è"
   horiz-adv-x="1134"
   d="M1036,606l0,-90l-762,0C281,389 316,293 378,227C439,160 525,127 634,127C698,127 760,136 820,153C879,170 938,196 997,231l0,-174C938,29 877,8 815,-7C752,-22 689,-29 625,-29C464,-29 336,23 243,127C149,231 102,372 102,549C102,732 147,878 236,986C325,1093 445,1147 596,1147C731,1147 839,1099 918,1002C997,905 1036,773 1036,606M870,660C869,761 843,841 794,901C745,961 679,991 598,991C505,991 431,962 376,904C320,846 288,764 280,659M455,1638l254,-374l-138,0l-293,374z"
   id="glyph344" />
<glyph
   unicode="é"
   horiz-adv-x="1134"
   d="M1036,606l0,-90l-762,0C281,389 316,293 378,227C439,160 525,127 634,127C698,127 760,136 820,153C879,170 938,196 997,231l0,-174C938,29 877,8 815,-7C752,-22 689,-29 625,-29C464,-29 336,23 243,127C149,231 102,372 102,549C102,732 147,878 236,986C325,1093 445,1147 596,1147C731,1147 839,1099 918,1002C997,905 1036,773 1036,606M870,660C869,761 843,841 794,901C745,961 679,991 598,991C505,991 431,962 376,904C320,846 288,764 280,659M711,1638l179,0l-293,-376l-138,0z"
   id="glyph346" />
<glyph
   unicode="ê"
   horiz-adv-x="1134"
   d="M1036,606l0,-90l-762,0C281,389 316,293 378,227C439,160 525,127 634,127C698,127 760,136 820,153C879,170 938,196 997,231l0,-174C938,29 877,8 815,-7C752,-22 689,-29 625,-29C464,-29 336,23 243,127C149,231 102,372 102,549C102,732 147,878 236,986C325,1093 445,1147 596,1147C731,1147 839,1099 918,1002C997,905 1036,773 1036,606M870,660C869,761 843,841 794,901C745,961 679,991 598,991C505,991 431,962 376,904C320,846 288,764 280,659M519,1638l133,0l221,-376l-125,0l-162,245l-162,-245l-125,0z"
   id="glyph348" />
<glyph
   unicode="ë"
   horiz-adv-x="1134"
   d="M1036,606l0,-90l-762,0C281,389 316,293 378,227C439,160 525,127 634,127C698,127 760,136 820,153C879,170 938,196 997,231l0,-174C938,29 877,8 815,-7C752,-22 689,-29 625,-29C464,-29 336,23 243,127C149,231 102,372 102,549C102,732 147,878 236,986C325,1093 445,1147 596,1147C731,1147 839,1099 918,1002C997,905 1036,773 1036,606M870,660C869,761 843,841 794,901C745,961 679,991 598,991C505,991 431,962 376,904C320,846 288,764 280,659M670,1552l183,0l0,-202l-183,0M319,1552l182,0l0,-202l-182,0z"
   id="glyph350" />
<glyph
   unicode="ì"
   horiz-adv-x="569"
   d="M126,1638l254,-374l-138,0l-293,374M174,1120l165,0l0,-1120l-165,0z"
   id="glyph352" />
<glyph
   unicode="í"
   horiz-adv-x="569"
   d="M382,1638l179,0l-293,-376l-138,0M174,1120l165,0l0,-1120l-165,0z"
   id="glyph354" />
<glyph
   unicode="î"
   horiz-adv-x="569"
   d="M174,1120l165,0l0,-1120l-165,0M190,1638l133,0l221,-376l-125,0l-162,245l-162,-245l-125,0z"
   id="glyph356" />
<glyph
   unicode="ï"
   horiz-adv-x="569"
   d="M174,1120l165,0l0,-1120l-165,0M341,1552l183,0l0,-202l-183,0M-10,1552l182,0l0,-202l-182,0z"
   id="glyph358" />
<glyph
   unicode="ð"
   horiz-adv-x="1127"
   d="M754,915C724,926 696,935 670,940C643,945 618,948 593,948C493,948 415,912 360,840C304,768 276,667 276,537C276,412 302,312 355,238C407,164 477,127 564,127C651,127 721,164 773,238C825,312 851,412 851,537C851,618 843,690 827,753C811,816 787,870 754,915M811,1141C886,1046 941,950 976,854C1010,758 1027,652 1027,537C1027,367 984,230 899,127C814,23 702,-29 564,-29C425,-29 314,23 229,127C144,230 102,367 102,537C102,704 143,839 226,943C309,1046 416,1098 549,1098C560,1098 573,1097 589,1096C604,1094 625,1091 650,1088l-143,180l-287,-107l-30,99l253,92l-163,204l205,0l114,-145l300,111l30,-97l-266,-98z"
   id="glyph360" />
<glyph
   unicode="ñ"
   horiz-adv-x="1168"
   d="M1012,676l0,-676l-166,0l0,670C846,776 827,855 790,908C753,961 697,987 623,987C534,987 463,955 412,892C360,829 334,742 334,633l0,-633l-167,0l0,1120l167,0l0,-174C373,1013 420,1064 474,1097C527,1130 589,1147 660,1147C775,1147 863,1107 923,1028C982,948 1012,831 1012,676M594,1370l-51,55C530,1438 518,1448 508,1455C498,1461 489,1464 482,1464C459,1464 442,1452 431,1428C420,1403 414,1364 413,1309l-112,0C302,1399 318,1469 349,1518C379,1567 421,1591 476,1591C499,1591 521,1586 540,1577C559,1568 579,1552 601,1530l52,-55C666,1462 678,1452 688,1446C697,1439 706,1436 714,1436C737,1436 754,1448 765,1473C776,1497 781,1536 782,1591l113,0C894,1501 878,1432 847,1383C816,1334 774,1309 719,1309C696,1309 675,1314 656,1323C637,1332 616,1348 594,1370z"
   id="glyph362" />
<glyph
   unicode="ò"
   horiz-adv-x="1127"
   d="M564,991C475,991 405,953 354,876C302,799 276,693 276,559C276,425 302,320 353,243C404,166 475,127 564,127C653,127 723,166 774,243C825,320 851,426 851,559C851,692 825,797 774,875C723,952 653,991 564,991M564,1147C708,1147 821,1095 904,991C986,887 1027,743 1027,559C1027,376 986,232 904,128C821,23 708,-29 564,-29C419,-29 306,23 225,128C143,232 102,376 102,559C102,743 143,887 225,991C306,1095 419,1147 564,1147M434,1638l254,-374l-138,0l-293,374z"
   id="glyph364" />
<glyph
   unicode="ó"
   horiz-adv-x="1127"
   d="M564,991C475,991 405,953 354,876C302,799 276,693 276,559C276,425 302,320 353,243C404,166 475,127 564,127C653,127 723,166 774,243C825,320 851,426 851,559C851,692 825,797 774,875C723,952 653,991 564,991M564,1147C708,1147 821,1095 904,991C986,887 1027,743 1027,559C1027,376 986,232 904,128C821,23 708,-29 564,-29C419,-29 306,23 225,128C143,232 102,376 102,559C102,743 143,887 225,991C306,1095 419,1147 564,1147M690,1638l179,0l-293,-376l-138,0z"
   id="glyph366" />
<glyph
   unicode="ô"
   horiz-adv-x="1127"
   d="M564,991C475,991 405,953 354,876C302,799 276,693 276,559C276,425 302,320 353,243C404,166 475,127 564,127C653,127 723,166 774,243C825,320 851,426 851,559C851,692 825,797 774,875C723,952 653,991 564,991M564,1147C708,1147 821,1095 904,991C986,887 1027,743 1027,559C1027,376 986,232 904,128C821,23 708,-29 564,-29C419,-29 306,23 225,128C143,232 102,376 102,559C102,743 143,887 225,991C306,1095 419,1147 564,1147M498,1638l133,0l221,-376l-125,0l-162,245l-162,-245l-125,0z"
   id="glyph368" />
<glyph
   unicode="õ"
   horiz-adv-x="1127"
   d="M564,991C475,991 405,953 354,876C302,799 276,693 276,559C276,425 302,320 353,243C404,166 475,127 564,127C653,127 723,166 774,243C825,320 851,426 851,559C851,692 825,797 774,875C723,952 653,991 564,991M564,1147C708,1147 821,1095 904,991C986,887 1027,743 1027,559C1027,376 986,232 904,128C821,23 708,-29 564,-29C419,-29 306,23 225,128C143,232 102,376 102,559C102,743 143,887 225,991C306,1095 419,1147 564,1147M561,1370l-51,55C497,1438 485,1448 475,1455C465,1461 456,1464 449,1464C426,1464 409,1452 398,1428C387,1403 381,1364 380,1309l-112,0C269,1399 285,1469 316,1518C346,1567 388,1591 443,1591C466,1591 488,1586 507,1577C526,1568 546,1552 568,1530l52,-55C633,1462 645,1452 655,1446C664,1439 673,1436 681,1436C704,1436 721,1448 732,1473C743,1497 748,1536 749,1591l113,0C861,1501 845,1432 814,1383C783,1334 741,1309 686,1309C663,1309 642,1314 623,1323C604,1332 583,1348 561,1370z"
   id="glyph370" />
<glyph
   unicode="ö"
   horiz-adv-x="1127"
   d="M564,991C475,991 405,953 354,876C302,799 276,693 276,559C276,425 302,320 353,243C404,166 475,127 564,127C653,127 723,166 774,243C825,320 851,426 851,559C851,692 825,797 774,875C723,952 653,991 564,991M564,1147C708,1147 821,1095 904,991C986,887 1027,743 1027,559C1027,376 986,232 904,128C821,23 708,-29 564,-29C419,-29 306,23 225,128C143,232 102,376 102,559C102,743 143,887 225,991C306,1095 419,1147 564,1147M649,1552l183,0l0,-202l-183,0M298,1552l182,0l0,-202l-182,0z"
   id="glyph372" />
<glyph
   unicode="÷"
   horiz-adv-x="1544"
   d="M662,1135l221,0l0,-246l-221,0M662,395l221,0l0,-245l-221,0M195,727l1154,0l0,-170l-1154,0z"
   id="glyph374" />
<glyph
   unicode="ø"
   horiz-adv-x="1127"
   d="M814,801l-438,-592C401,181 429,160 460,147C491,134 525,127 564,127C653,127 723,166 774,243C825,320 851,426 851,559C851,612 848,658 842,697C836,736 827,770 814,801M751,909C726,936 698,957 667,971C636,984 601,991 564,991C473,991 403,952 352,874C301,795 276,686 276,545C276,497 279,455 285,418C290,381 299,348 311,317M199,166C166,217 142,276 126,342C110,407 102,480 102,559C102,743 143,887 225,991C306,1095 419,1147 564,1147C620,1147 672,1139 720,1122C767,1105 811,1079 851,1044l125,168l86,-79l-131,-179C962,903 986,844 1003,778C1019,712 1027,639 1027,559C1027,376 986,232 904,128C821,23 708,-29 564,-29C507,-29 454,-20 406,-3C357,14 314,40 276,74l-125,-168l-86,78z"
   id="glyph376" />
<glyph
   unicode="ù"
   horiz-adv-x="1168"
   d="M157,442l0,678l165,0l0,-671C322,343 341,264 378,211C415,158 471,131 545,131C635,131 706,163 758,226C809,289 835,376 835,485l0,635l166,0l0,-1120l-166,0l0,172C795,104 749,54 696,21C643,-12 581,-29 510,-29C395,-29 307,11 247,91C187,171 157,288 157,442M441,1638l254,-374l-138,0l-293,374z"
   id="glyph378" />
<glyph
   unicode="ú"
   horiz-adv-x="1168"
   d="M157,442l0,678l165,0l0,-671C322,343 341,264 378,211C415,158 471,131 545,131C635,131 706,163 758,226C809,289 835,376 835,485l0,635l166,0l0,-1120l-166,0l0,172C795,104 749,54 696,21C643,-12 581,-29 510,-29C395,-29 307,11 247,91C187,171 157,288 157,442M697,1638l179,0l-293,-376l-138,0z"
   id="glyph380" />
<glyph
   unicode="û"
   horiz-adv-x="1168"
   d="M157,442l0,678l165,0l0,-671C322,343 341,264 378,211C415,158 471,131 545,131C635,131 706,163 758,226C809,289 835,376 835,485l0,635l166,0l0,-1120l-166,0l0,172C795,104 749,54 696,21C643,-12 581,-29 510,-29C395,-29 307,11 247,91C187,171 157,288 157,442M505,1638l133,0l221,-376l-125,0l-162,245l-162,-245l-125,0z"
   id="glyph382" />
<glyph
   unicode="ü"
   horiz-adv-x="1168"
   d="M157,442l0,678l165,0l0,-671C322,343 341,264 378,211C415,158 471,131 545,131C635,131 706,163 758,226C809,289 835,376 835,485l0,635l166,0l0,-1120l-166,0l0,172C795,104 749,54 696,21C643,-12 581,-29 510,-29C395,-29 307,11 247,91C187,171 157,288 157,442M656,1552l183,0l0,-202l-183,0M305,1552l182,0l0,-202l-182,0z"
   id="glyph384" />
<glyph
   unicode="ý"
   horiz-adv-x="1090"
   d="M593,-104C546,-237 501,-324 457,-365C412,-406 353,-426 278,-426l-132,0l0,154l97,0C288,-272 324,-260 349,-236C374,-212 402,-155 433,-66l30,84l-408,1102l175,0l315,-876l315,876l176,0M671,1638l179,0l-293,-376l-138,0z"
   id="glyph386" />
<glyph
   unicode="þ"
   horiz-adv-x="1170"
   d="M334,168l0,-594l-167,0l0,1982l167,0l0,-606C369,1017 413,1066 466,1099C519,1131 582,1147 656,1147C779,1147 878,1093 955,985C1031,877 1069,735 1069,559C1069,383 1031,241 955,133C878,25 779,-29 656,-29C582,-29 519,-13 466,20C413,52 369,101 334,168M897,559C897,694 872,801 822,878C772,955 703,993 616,993C528,993 459,955 409,878C359,801 334,694 334,559C334,424 359,318 409,241C459,164 528,125 616,125C703,125 772,164 822,241C872,318 897,424 897,559z"
   id="glyph388" />
<glyph
   unicode="ÿ"
   horiz-adv-x="1090"
   d="M593,-104C546,-237 501,-324 457,-365C412,-406 353,-426 278,-426l-132,0l0,154l97,0C288,-272 324,-260 349,-236C374,-212 402,-155 433,-66l30,84l-408,1102l175,0l315,-876l315,876l176,0M630,1552l183,0l0,-202l-183,0M279,1552l182,0l0,-202l-182,0z"
   id="glyph390" />
<glyph
   unicode="Ā"
   horiz-adv-x="1260"
   d="M362,1841l538,0l0,-148l-538,0M630,1294l-247,-743l495,0M527,1493l207,0l512,-1493l-189,0l-123,383l-606,0l-122,-383l-192,0z"
   id="glyph392" />
<glyph
   unicode="ā"
   horiz-adv-x="1129"
   d="M259,1526l538,0l0,-148l-538,0M632,563C498,563 405,546 354,512C302,478 276,420 276,338C276,273 295,221 334,183C373,144 425,125 492,125C584,125 658,161 713,234C768,306 796,402 796,522l0,41M962,639l0,-639l-166,0l0,170C759,102 712,52 656,20C599,-13 530,-29 448,-29C345,-29 263,3 202,68C141,132 111,218 111,326C111,452 149,547 225,611C300,675 413,707 564,707l232,0l0,18C796,810 771,875 721,922C671,968 601,991 510,991C453,991 397,983 342,968C287,953 235,930 184,899l0,170C245,1095 304,1115 361,1128C418,1141 473,1147 527,1147C673,1147 782,1105 854,1021C926,937 962,810 962,639z"
   id="glyph394" />
<glyph
   unicode="Ă"
   horiz-adv-x="1260"
   d="M364,1938l106,0C477,1888 495,1851 524,1826C553,1801 593,1788 646,1788C697,1788 738,1800 767,1825C796,1850 814,1887 821,1938l106,0C922,1843 895,1771 848,1723C800,1675 733,1651 646,1651C559,1651 491,1675 444,1723C397,1771 370,1843 364,1938M630,1294l-247,-743l495,0M527,1493l207,0l512,-1493l-189,0l-123,383l-606,0l-122,-383l-192,0z"
   id="glyph396" />
<glyph
   unicode="ă"
   horiz-adv-x="1129"
   d="M250,1567l106,0C363,1517 381,1480 410,1455C439,1430 479,1417 532,1417C583,1417 624,1429 653,1454C682,1479 700,1516 707,1567l106,0C808,1472 781,1400 734,1352C686,1304 619,1280 532,1280C445,1280 377,1304 330,1352C283,1400 256,1472 250,1567M632,563C498,563 405,546 354,512C302,478 276,420 276,338C276,273 295,221 334,183C373,144 425,125 492,125C584,125 658,161 713,234C768,306 796,402 796,522l0,41M962,639l0,-639l-166,0l0,170C759,102 712,52 656,20C599,-13 530,-29 448,-29C345,-29 263,3 202,68C141,132 111,218 111,326C111,452 149,547 225,611C300,675 413,707 564,707l232,0l0,18C796,810 771,875 721,922C671,968 601,991 510,991C453,991 397,983 342,968C287,953 235,930 184,899l0,170C245,1095 304,1115 361,1128C418,1141 473,1147 527,1147C673,1147 782,1105 854,1021C926,937 962,810 962,639z"
   id="glyph398" />
<glyph
   unicode="Ą"
   horiz-adv-x="1260"
   d="M630,1294l-247,-743l495,0M527,1493l207,0l512,-1493l-189,0l-123,383l-606,0l-122,-383l-192,0M1062,0l107,0C1142,-41 1123,-76 1110,-105C1097,-134 1090,-159 1090,-180C1090,-211 1098,-234 1115,-249C1131,-264 1155,-272 1188,-272C1207,-272 1226,-269 1245,-264C1264,-259 1282,-252 1300,-242l0,-133C1277,-382 1256,-387 1236,-390C1215,-393 1196,-395 1178,-395C1105,-395 1051,-380 1017,-351C982,-322 965,-277 965,-215C965,-183 973,-149 989,-114C1004,-79 1029,-41 1062,0z"
   id="glyph400" />
<glyph
   unicode="ą"
   horiz-adv-x="1129"
   d="M632,563C498,563 405,546 354,512C302,478 276,420 276,338C276,273 295,221 334,183C373,144 425,125 492,125C584,125 658,161 713,234C768,306 796,402 796,522l0,41M962,639l0,-639l-166,0l0,170C759,102 712,52 656,20C599,-13 530,-29 448,-29C345,-29 263,3 202,68C141,132 111,218 111,326C111,452 149,547 225,611C300,675 413,707 564,707l232,0l0,18C796,810 771,875 721,922C671,968 601,991 510,991C453,991 397,983 342,968C287,953 235,930 184,899l0,170C245,1095 304,1115 361,1128C418,1141 473,1147 527,1147C673,1147 782,1105 854,1021C926,937 962,810 962,639M798,0l107,0C878,-41 859,-76 846,-105C833,-134 826,-159 826,-180C826,-211 834,-234 851,-249C867,-264 891,-272 924,-272C943,-272 962,-269 981,-264C1000,-259 1018,-252 1036,-242l0,-133C1013,-382 992,-387 972,-390C951,-393 932,-395 914,-395C841,-395 787,-380 753,-351C718,-322 701,-277 701,-215C701,-183 709,-149 725,-114C740,-79 765,-41 798,0z"
   id="glyph402" />
<glyph
   unicode="Ć"
   horiz-adv-x="1287"
   d="M1187,1378l0,-213C1126,1228 1060,1276 991,1307C922,1338 848,1354 770,1354C617,1354 499,1302 418,1198C336,1093 295,942 295,745C295,548 336,398 418,294C499,189 617,137 770,137C848,137 922,153 991,184C1060,215 1126,263 1187,326l0,-211C1124,67 1056,31 985,7C914,-17 839,-29 760,-29C556,-29 396,40 279,179C162,317 104,506 104,745C104,985 162,1174 279,1313C396,1451 556,1520 760,1520C840,1520 916,1508 987,1485C1058,1461 1125,1425 1187,1378M781,1899l166,0l-205,-264l-138,0z"
   id="glyph404" />
<glyph
   unicode="ć"
   horiz-adv-x="1013"
   d="M899,1077l0,-172C852,934 806,955 759,970C712,984 664,991 616,991C508,991 424,953 365,878C306,802 276,696 276,559C276,422 306,316 365,241C424,165 508,127 616,127C664,127 712,134 759,149C806,163 852,184 899,213l0,-170C853,19 805,1 756,-11C706,-23 653,-29 598,-29C446,-29 325,24 236,130C147,236 102,379 102,559C102,742 147,885 238,990C328,1095 451,1147 608,1147C659,1147 709,1141 758,1130C807,1118 854,1100 899,1077M709,1638l179,0l-293,-376l-138,0z"
   id="glyph406" />
<glyph
   unicode="Ĉ"
   horiz-adv-x="1287"
   d="M675,1901l169,0l190,-266l-125,0l-150,178l-149,-178l-125,0M1187,1378l0,-213C1126,1228 1060,1276 991,1307C922,1338 848,1354 770,1354C617,1354 499,1302 418,1198C336,1093 295,942 295,745C295,548 336,398 418,294C499,189 617,137 770,137C848,137 922,153 991,184C1060,215 1126,263 1187,326l0,-211C1124,67 1056,31 985,7C914,-17 839,-29 760,-29C556,-29 396,40 279,179C162,317 104,506 104,745C104,985 162,1174 279,1313C396,1451 556,1520 760,1520C840,1520 916,1508 987,1485C1058,1461 1125,1425 1187,1378z"
   id="glyph408" />
<glyph
   unicode="ĉ"
   horiz-adv-x="1013"
   d="M899,1077l0,-172C852,934 806,955 759,970C712,984 664,991 616,991C508,991 424,953 365,878C306,802 276,696 276,559C276,422 306,316 365,241C424,165 508,127 616,127C664,127 712,134 759,149C806,163 852,184 899,213l0,-170C853,19 805,1 756,-11C706,-23 653,-29 598,-29C446,-29 325,24 236,130C147,236 102,379 102,559C102,742 147,885 238,990C328,1095 451,1147 608,1147C659,1147 709,1141 758,1130C807,1118 854,1100 899,1077M542,1638l133,0l221,-376l-125,0l-162,245l-162,-245l-125,0z"
   id="glyph410" />
<glyph
   unicode="Ċ"
   horiz-adv-x="1287"
   d="M1187,1378l0,-213C1126,1228 1060,1276 991,1307C922,1338 848,1354 770,1354C617,1354 499,1302 418,1198C336,1093 295,942 295,745C295,548 336,398 418,294C499,189 617,137 770,137C848,137 922,153 991,184C1060,215 1126,263 1187,326l0,-211C1124,67 1056,31 985,7C914,-17 839,-29 760,-29C556,-29 396,40 279,179C162,317 104,506 104,745C104,985 162,1174 279,1313C396,1451 556,1520 760,1520C840,1520 916,1508 987,1485C1058,1461 1125,1425 1187,1378M667,1872l184,0l0,-205l-184,0z"
   id="glyph412" />
<glyph
   unicode="ċ"
   horiz-adv-x="1013"
   d="M899,1077l0,-172C852,934 806,955 759,970C712,984 664,991 616,991C508,991 424,953 365,878C306,802 276,696 276,559C276,422 306,316 365,241C424,165 508,127 616,127C664,127 712,134 759,149C806,163 852,184 899,213l0,-170C853,19 805,1 756,-11C706,-23 653,-29 598,-29C446,-29 325,24 236,130C147,236 102,379 102,559C102,742 147,885 238,990C328,1095 451,1147 608,1147C659,1147 709,1141 758,1130C807,1118 854,1100 899,1077M517,1552l184,0l0,-204l-184,0z"
   id="glyph414" />
<glyph
   unicode="Č"
   horiz-adv-x="1287"
   d="M1187,1378l0,-213C1126,1228 1060,1276 991,1307C922,1338 848,1354 770,1354C617,1354 499,1302 418,1198C336,1093 295,942 295,745C295,548 336,398 418,294C499,189 617,137 770,137C848,137 922,153 991,184C1060,215 1126,263 1187,326l0,-211C1124,67 1056,31 985,7C914,-17 839,-29 760,-29C556,-29 396,40 279,179C162,317 104,506 104,745C104,985 162,1174 279,1313C396,1451 556,1520 760,1520C840,1520 916,1508 987,1485C1058,1461 1125,1425 1187,1378M647,1635l-190,266l125,0l149,-178l150,178l125,0l-190,-266z"
   id="glyph416" />
<glyph
   unicode="č"
   horiz-adv-x="1013"
   d="M899,1077l0,-172C852,934 806,955 759,970C712,984 664,991 616,991C508,991 424,953 365,878C306,802 276,696 276,559C276,422 306,316 365,241C424,165 508,127 616,127C664,127 712,134 759,149C806,163 852,184 899,213l0,-170C853,19 805,1 756,-11C706,-23 653,-29 598,-29C446,-29 325,24 236,130C147,236 102,379 102,559C102,742 147,885 238,990C328,1095 451,1147 608,1147C659,1147 709,1141 758,1130C807,1118 854,1100 899,1077M517,1262l-220,376l125,0l162,-245l162,245l125,0l-221,-376z"
   id="glyph418" />
<glyph
   unicode="Ď"
   horiz-adv-x="1419"
   d="M363,1327l0,-1161l219,0C767,166 903,213 990,306C1076,399 1119,547 1119,748C1119,948 1076,1095 990,1188C903,1281 767,1327 582,1327M181,1493l373,0C815,1493 1006,1433 1128,1313C1249,1192 1310,1004 1310,748C1310,491 1249,302 1127,181C1004,60 813,0 554,0l-373,0M589,1655l-190,266l125,0l149,-178l150,178l125,0l-190,-266z"
   id="glyph420" />
<glyph
   unicode="ď"
   horiz-adv-x="1170"
   d="M837,950l0,606l166,0l0,-1556l-166,0l0,168C802,101 759,52 706,20C653,-13 589,-29 514,-29C392,-29 293,25 217,133C140,241 102,383 102,559C102,735 140,877 217,985C293,1093 392,1147 514,1147C589,1147 653,1131 706,1099C759,1066 802,1017 837,950M273,559C273,424 298,318 348,241C398,164 467,125 554,125C642,125 711,164 762,241C812,318 837,424 837,559C837,694 812,801 762,878C711,955 642,993 554,993C467,993 398,955 348,878C298,801 273,694 273,559M1170,1554l179,0l-105,-376l-138,0z"
   id="glyph422" />
<glyph
   unicode="Đ"
   horiz-adv-x="1428"
   d="M190,1493l374,0C824,1493 1015,1433 1137,1313C1258,1192 1319,1004 1319,748C1319,491 1258,302 1136,181C1014,60 823,0 564,0l-374,0l0,700l-181,0l0,144l181,0M373,1327l0,-483l302,0l0,-144l-302,0l0,-534l218,0C776,166 912,213 999,306C1085,399 1128,547 1128,748C1128,948 1085,1095 999,1188C912,1281 776,1327 591,1327z"
   id="glyph424" />
<glyph
   unicode="đ"
   horiz-adv-x="1170"
   d="M837,950l0,334l-293,0l0,125l293,0l0,147l166,0l0,-147l138,0l0,-125l-138,0l0,-1284l-166,0l0,168C802,101 759,52 706,20C653,-13 589,-29 514,-29C392,-29 293,25 217,133C140,241 102,383 102,559C102,735 140,877 217,985C293,1093 392,1147 514,1147C589,1147 653,1131 706,1099C759,1066 802,1017 837,950M273,559C273,424 298,318 348,241C398,164 467,125 554,125C642,125 711,164 762,241C812,318 837,424 837,559C837,694 812,801 762,878C711,955 642,993 554,993C467,993 398,955 348,878C298,801 273,694 273,559z"
   id="glyph426" />
<glyph
   unicode="Ē"
   horiz-adv-x="1164"
   d="M181,1493l849,0l0,-170l-667,0l0,-442l640,0l0,-170l-640,0l0,-541l684,0l0,-170l-866,0M337,1843l538,0l0,-148l-538,0z"
   id="glyph428" />
<glyph
   unicode="ē"
   horiz-adv-x="1134"
   d="M327,1526l538,0l0,-148l-538,0M1036,606l0,-90l-762,0C281,389 316,293 378,227C439,160 525,127 634,127C698,127 760,136 820,153C879,170 938,196 997,231l0,-174C938,29 877,8 815,-7C752,-22 689,-29 625,-29C464,-29 336,23 243,127C149,231 102,372 102,549C102,732 147,878 236,986C325,1093 445,1147 596,1147C731,1147 839,1099 918,1002C997,905 1036,773 1036,606M870,660C869,761 843,841 794,901C745,961 679,991 598,991C505,991 431,962 376,904C320,846 288,764 280,659z"
   id="glyph430" />
<glyph
   unicode="Ĕ"
   horiz-adv-x="1164"
   d="M324,1901l106,0C437,1865 456,1838 486,1819C515,1800 555,1790 605,1790C654,1790 694,1799 723,1818C752,1836 771,1864 781,1901l106,0C881,1822 854,1762 806,1721C758,1680 691,1659 605,1659C519,1659 452,1679 404,1720C356,1761 329,1821 324,1901M181,1493l849,0l0,-170l-667,0l0,-442l640,0l0,-170l-640,0l0,-541l684,0l0,-170l-866,0z"
   id="glyph432" />
<glyph
   unicode="ĕ"
   horiz-adv-x="1134"
   d="M314,1608l106,0C427,1558 445,1521 474,1496C503,1471 543,1458 596,1458C647,1458 688,1470 717,1495C746,1520 764,1557 771,1608l106,0C872,1513 845,1441 798,1393C750,1345 683,1321 596,1321C509,1321 441,1345 394,1393C347,1441 320,1513 314,1608M1036,606l0,-90l-762,0C281,389 316,293 378,227C439,160 525,127 634,127C698,127 760,136 820,153C879,170 938,196 997,231l0,-174C938,29 877,8 815,-7C752,-22 689,-29 625,-29C464,-29 336,23 243,127C149,231 102,372 102,549C102,732 147,878 236,986C325,1093 445,1147 596,1147C731,1147 839,1099 918,1002C997,905 1036,773 1036,606M870,660C869,761 843,841 794,901C745,961 679,991 598,991C505,991 431,962 376,904C320,846 288,764 280,659z"
   id="glyph434" />
<glyph
   unicode="Ė"
   horiz-adv-x="1164"
   d="M181,1493l849,0l0,-170l-667,0l0,-442l640,0l0,-170l-640,0l0,-541l684,0l0,-170l-866,0M513,1872l184,0l0,-205l-184,0z"
   id="glyph436" />
<glyph
   unicode="ė"
   horiz-adv-x="1134"
   d="M1036,606l0,-90l-762,0C281,389 316,293 378,227C439,160 525,127 634,127C698,127 760,136 820,153C879,170 938,196 997,231l0,-174C938,29 877,8 815,-7C752,-22 689,-29 625,-29C464,-29 336,23 243,127C149,231 102,372 102,549C102,732 147,878 236,986C325,1093 445,1147 596,1147C731,1147 839,1099 918,1002C997,905 1036,773 1036,606M870,660C869,761 843,841 794,901C745,961 679,991 598,991C505,991 431,962 376,904C320,846 288,764 280,659M504,1552l184,0l0,-204l-184,0z"
   id="glyph438" />
<glyph
   unicode="Ę"
   horiz-adv-x="1164"
   d="M181,1493l849,0l0,-170l-667,0l0,-442l640,0l0,-170l-640,0l0,-541l684,0l0,-170l-866,0M810,0l107,0C890,-41 871,-76 858,-105C845,-134 838,-159 838,-180C838,-211 846,-234 863,-249C879,-264 903,-272 936,-272C955,-272 974,-269 993,-264C1012,-259 1030,-252 1048,-242l0,-133C1025,-382 1004,-387 984,-390C963,-393 944,-395 926,-395C853,-395 799,-380 765,-351C730,-322 713,-277 713,-215C713,-183 721,-149 737,-114C752,-79 777,-41 810,0z"
   id="glyph440" />
<glyph
   unicode="ę"
   horiz-adv-x="1134"
   d="M1036,606l0,-90l-762,0C281,389 316,293 378,227C439,160 525,127 634,127C698,127 760,136 820,153C879,170 938,196 997,231l0,-174C938,29 877,8 815,-7C752,-22 689,-29 625,-29C464,-29 336,23 243,127C149,231 102,372 102,549C102,732 147,878 236,986C325,1093 445,1147 596,1147C731,1147 839,1099 918,1002C997,905 1036,773 1036,606M870,660C869,761 843,841 794,901C745,961 679,991 598,991C505,991 431,962 376,904C320,846 288,764 280,659M734,0l107,0C814,-41 795,-76 782,-105C769,-134 762,-159 762,-180C762,-211 770,-234 787,-249C803,-264 827,-272 860,-272C879,-272 898,-269 917,-264C936,-259 954,-252 972,-242l0,-133C949,-382 928,-387 908,-390C887,-393 868,-395 850,-395C777,-395 723,-380 689,-351C654,-322 637,-277 637,-215C637,-183 645,-149 661,-114C676,-79 701,-41 734,0z"
   id="glyph442" />
<glyph
   unicode="Ě"
   horiz-adv-x="1164"
   d="M181,1493l849,0l0,-170l-667,0l0,-442l640,0l0,-170l-640,0l0,-541l684,0l0,-170l-866,0M526,1629l-190,266l125,0l149,-178l150,178l125,0l-190,-266z"
   id="glyph444" />
<glyph
   unicode="ě"
   horiz-adv-x="1134"
   d="M1036,606l0,-90l-762,0C281,389 316,293 378,227C439,160 525,127 634,127C698,127 760,136 820,153C879,170 938,196 997,231l0,-174C938,29 877,8 815,-7C752,-22 689,-29 625,-29C464,-29 336,23 243,127C149,231 102,372 102,549C102,732 147,878 236,986C325,1093 445,1147 596,1147C731,1147 839,1099 918,1002C997,905 1036,773 1036,606M870,660C869,761 843,841 794,901C745,961 679,991 598,991C505,991 431,962 376,904C320,846 288,764 280,659M527,1257l-220,376l125,0l162,-245l162,245l125,0l-221,-376z"
   id="glyph446" />
<glyph
   unicode="Ĝ"
   horiz-adv-x="1428"
   d="M690,1901l169,0l190,-266l-125,0l-150,178l-149,-178l-125,0M1097,213l0,401l-297,0l0,166l477,0l0,-641C1207,84 1130,42 1045,14C960,-15 870,-29 774,-29C564,-29 400,39 282,176C163,312 104,502 104,745C104,989 163,1179 282,1316C400,1452 564,1520 774,1520C861,1520 945,1508 1024,1484C1103,1460 1175,1425 1242,1378l0,-215C1175,1226 1103,1274 1028,1306C952,1338 872,1354 789,1354C625,1354 502,1303 419,1201C336,1099 295,947 295,745C295,544 336,392 419,290C502,188 625,137 789,137C854,137 911,143 962,156C1012,168 1057,187 1097,213z"
   id="glyph448" />
<glyph
   unicode="ĝ"
   horiz-adv-x="1170"
   d="M488,1638l133,0l221,-376l-125,0l-162,245l-162,-245l-125,0M837,573C837,706 812,810 763,883C713,956 643,993 554,993C465,993 396,956 347,883C298,810 273,706 273,573C273,440 298,337 347,264C396,191 465,154 554,154C643,154 713,191 763,264C812,337 837,440 837,573M1003,139C1003,-52 965,-193 889,-286C812,-379 695,-426 538,-426C480,-426 425,-421 374,-411C322,-402 272,-387 223,-367l0,179C272,-217 320,-239 367,-253C414,-267 463,-274 512,-274C621,-274 702,-242 756,-179C810,-116 837,-21 837,106l0,91C803,131 759,82 706,49C653,16 589,0 514,0C390,0 290,52 215,157C140,262 102,400 102,573C102,746 140,885 215,990C290,1095 390,1147 514,1147C589,1147 653,1131 706,1098C759,1065 803,1016 837,950l0,170l166,0z"
   id="glyph450" />
<glyph
   unicode="Ğ"
   horiz-adv-x="1428"
   d="M1097,213l0,401l-297,0l0,166l477,0l0,-641C1207,84 1130,42 1045,14C960,-15 870,-29 774,-29C564,-29 400,39 282,176C163,312 104,502 104,745C104,989 163,1179 282,1316C400,1452 564,1520 774,1520C861,1520 945,1508 1024,1484C1103,1460 1175,1425 1242,1378l0,-215C1175,1226 1103,1274 1028,1306C952,1338 872,1354 789,1354C625,1354 502,1303 419,1201C336,1099 295,947 295,745C295,544 336,392 419,290C502,188 625,137 789,137C854,137 911,143 962,156C1012,168 1057,187 1097,213M434,1901l106,0C547,1865 566,1838 596,1819C625,1800 665,1790 715,1790C764,1790 804,1799 833,1818C862,1836 881,1864 891,1901l106,0C991,1822 964,1762 916,1721C868,1680 801,1659 715,1659C629,1659 562,1679 514,1720C466,1761 439,1821 434,1901z"
   id="glyph452" />
<glyph
   unicode="ğ"
   horiz-adv-x="1170"
   d="M837,573C837,706 812,810 763,883C713,956 643,993 554,993C465,993 396,956 347,883C298,810 273,706 273,573C273,440 298,337 347,264C396,191 465,154 554,154C643,154 713,191 763,264C812,337 837,440 837,573M1003,139C1003,-52 965,-193 889,-286C812,-379 695,-426 538,-426C480,-426 425,-421 374,-411C322,-402 272,-387 223,-367l0,179C272,-217 320,-239 367,-253C414,-267 463,-274 512,-274C621,-274 702,-242 756,-179C810,-116 837,-21 837,106l0,91C803,131 759,82 706,49C653,16 589,0 514,0C390,0 290,52 215,157C140,262 102,400 102,573C102,746 140,885 215,990C290,1095 390,1147 514,1147C589,1147 653,1131 706,1098C759,1065 803,1016 837,950l0,170l166,0M304,1608l106,0C417,1558 435,1521 464,1496C493,1471 533,1458 586,1458C637,1458 678,1470 707,1495C736,1520 754,1557 761,1608l106,0C862,1513 835,1441 788,1393C740,1345 673,1321 586,1321C499,1321 431,1345 384,1393C337,1441 310,1513 304,1608z"
   id="glyph454" />
<glyph
   unicode="Ġ"
   horiz-adv-x="1428"
   d="M682,1872l184,0l0,-205l-184,0M1097,213l0,401l-297,0l0,166l477,0l0,-641C1207,84 1130,42 1045,14C960,-15 870,-29 774,-29C564,-29 400,39 282,176C163,312 104,502 104,745C104,989 163,1179 282,1316C400,1452 564,1520 774,1520C861,1520 945,1508 1024,1484C1103,1460 1175,1425 1242,1378l0,-215C1175,1226 1103,1274 1028,1306C952,1338 872,1354 789,1354C625,1354 502,1303 419,1201C336,1099 295,947 295,745C295,544 336,392 419,290C502,188 625,137 789,137C854,137 911,143 962,156C1012,168 1057,187 1097,213z"
   id="glyph456" />
<glyph
   unicode="ġ"
   horiz-adv-x="1170"
   d="M463,1552l184,0l0,-204l-184,0M837,573C837,706 812,810 763,883C713,956 643,993 554,993C465,993 396,956 347,883C298,810 273,706 273,573C273,440 298,337 347,264C396,191 465,154 554,154C643,154 713,191 763,264C812,337 837,440 837,573M1003,139C1003,-52 965,-193 889,-286C812,-379 695,-426 538,-426C480,-426 425,-421 374,-411C322,-402 272,-387 223,-367l0,179C272,-217 320,-239 367,-253C414,-267 463,-274 512,-274C621,-274 702,-242 756,-179C810,-116 837,-21 837,106l0,91C803,131 759,82 706,49C653,16 589,0 514,0C390,0 290,52 215,157C140,262 102,400 102,573C102,746 140,885 215,990C290,1095 390,1147 514,1147C589,1147 653,1131 706,1098C759,1065 803,1016 837,950l0,170l166,0z"
   id="glyph458" />
<glyph
   unicode="Ģ"
   horiz-adv-x="1428"
   d="M714,-191l190,0l-148,-320l-116,0M1097,213l0,401l-297,0l0,166l477,0l0,-641C1207,84 1130,42 1045,14C960,-15 870,-29 774,-29C564,-29 400,39 282,176C163,312 104,502 104,745C104,989 163,1179 282,1316C400,1452 564,1520 774,1520C861,1520 945,1508 1024,1484C1103,1460 1175,1425 1242,1378l0,-215C1175,1226 1103,1274 1028,1306C952,1338 872,1354 789,1354C625,1354 502,1303 419,1201C336,1099 295,947 295,745C295,544 336,392 419,290C502,188 625,137 789,137C854,137 911,143 962,156C1012,168 1057,187 1097,213z"
   id="glyph460" />
<glyph
   unicode="ģ"
   horiz-adv-x="1170"
   d="M649,1269l-190,0l148,319l116,0M837,573C837,706 812,810 763,883C713,956 643,993 554,993C465,993 396,956 347,883C298,810 273,706 273,573C273,440 298,337 347,264C396,191 465,154 554,154C643,154 713,191 763,264C812,337 837,440 837,573M1003,139C1003,-52 965,-193 889,-286C812,-379 695,-426 538,-426C480,-426 425,-421 374,-411C322,-402 272,-387 223,-367l0,179C272,-217 320,-239 367,-253C414,-267 463,-274 512,-274C621,-274 702,-242 756,-179C810,-116 837,-21 837,106l0,91C803,131 759,82 706,49C653,16 589,0 514,0C390,0 290,52 215,157C140,262 102,400 102,573C102,746 140,885 215,990C290,1095 390,1147 514,1147C589,1147 653,1131 706,1098C759,1065 803,1016 837,950l0,170l166,0z"
   id="glyph462" />
<glyph
   unicode="Ĥ"
   horiz-adv-x="1386"
   d="M609,1901l169,0l190,-266l-125,0l-150,178l-149,-178l-125,0M181,1493l182,0l0,-612l660,0l0,612l182,0l0,-1493l-182,0l0,711l-660,0l0,-711l-182,0z"
   id="glyph464" />
<glyph
   unicode="ĥ"
   horiz-adv-x="1168"
   d="M166,1901l169,0l190,-266l-125,0l-150,178l-149,-178l-125,0M1012,676l0,-676l-166,0l0,670C846,776 827,855 790,908C753,961 697,987 623,987C534,987 463,955 412,892C360,829 334,742 334,633l0,-633l-167,0l0,1556l167,0l0,-610C373,1013 420,1064 474,1097C527,1130 589,1147 660,1147C775,1147 863,1107 923,1028C982,948 1012,831 1012,676z"
   id="glyph466" />
<glyph
   unicode="Ħ"
   horiz-adv-x="1688"
   d="M332,1493l182,0l0,-224l660,0l0,224l182,0l0,-224l152,0l0,-164l-152,0l0,-1105l-182,0l0,711l-660,0l0,-711l-182,0l0,1105l-151,0l0,164l151,0M514,1105l0,-224l660,0l0,224z"
   id="glyph468" />
<glyph
   unicode="ħ"
   horiz-adv-x="1280"
   d="M1065,676l0,-676l-166,0l0,670C899,776 881,855 844,908C807,961 751,987 676,987C587,987 516,955 465,892C413,829 387,742 387,633l0,-633l-167,0l0,1270l-112,0l0,164l112,0l0,122l167,0l0,-122l317,0l0,-164l-317,0l0,-324C426,1013 473,1064 527,1097C581,1130 643,1147 713,1147C828,1147 916,1107 976,1028C1035,948 1065,831 1065,676z"
   id="glyph470" />
<glyph
   unicode="Ĩ"
   horiz-adv-x="543"
   d="M269,1710l-52,33C202,1752 190,1759 181,1763C172,1766 163,1768 156,1768C135,1768 118,1760 106,1743C94,1726 88,1703 88,1673l0,-6l-113,0C-25,1734 -9,1788 22,1827C53,1866 94,1886 145,1886C167,1886 187,1883 206,1878C224,1873 247,1861 276,1843l51,-30C341,1804 353,1798 363,1794C373,1790 383,1788 392,1788C411,1788 427,1797 439,1814C451,1831 457,1853 457,1880l0,6l112,0C568,1819 552,1766 521,1727C490,1687 450,1667 399,1667C379,1667 360,1670 342,1675C324,1680 300,1692 269,1710M181,1493l182,0l0,-1493l-182,0z"
   id="glyph472" />
<glyph
   unicode="ĩ"
   horiz-adv-x="569"
   d="M253,1370l-51,55C189,1438 177,1448 167,1455C157,1461 148,1464 141,1464C118,1464 101,1452 90,1428C79,1403 73,1364 72,1309l-112,0C-39,1399 -23,1469 8,1518C38,1567 80,1591 135,1591C158,1591 180,1586 199,1577C218,1568 238,1552 260,1530l52,-55C325,1462 337,1452 347,1446C356,1439 365,1436 373,1436C396,1436 413,1448 424,1473C435,1497 440,1536 441,1591l113,0C553,1501 537,1432 506,1383C475,1334 433,1309 378,1309C355,1309 334,1314 315,1323C296,1332 275,1348 253,1370M174,1120l165,0l0,-1120l-165,0z"
   id="glyph474" />
<glyph
   unicode="Ī"
   horiz-adv-x="543"
   d="M3,1841l538,0l0,-148l-538,0M181,1493l182,0l0,-1493l-182,0z"
   id="glyph476" />
<glyph
   unicode="ī"
   horiz-adv-x="569"
   d="M-12,1525l538,0l0,-148l-538,0M174,1120l165,0l0,-1120l-165,0z"
   id="glyph478" />
<glyph
   unicode="Ĭ"
   horiz-adv-x="543"
   d="M-9,1901l106,0C104,1865 123,1838 153,1819C182,1800 222,1790 272,1790C321,1790 361,1799 390,1818C419,1836 438,1864 448,1901l106,0C548,1822 521,1762 473,1721C425,1680 358,1659 272,1659C186,1659 119,1679 71,1720C23,1761 -4,1821 -9,1901M181,1493l182,0l0,-1493l-182,0z"
   id="glyph480" />
<glyph
   unicode="ĭ"
   horiz-adv-x="569"
   d="M-25,1608l106,0C88,1558 106,1521 135,1496C164,1471 204,1458 257,1458C308,1458 349,1470 378,1495C407,1520 425,1557 432,1608l106,0C533,1513 506,1441 459,1393C411,1345 344,1321 257,1321C170,1321 102,1345 55,1393C8,1441 -19,1513 -25,1608M174,1120l165,0l0,-1120l-165,0z"
   id="glyph482" />
<glyph
   unicode="Į"
   horiz-adv-x="543"
   d="M256,0l107,0C336,-41 317,-76 304,-105C291,-134 284,-159 284,-180C284,-211 292,-234 309,-249C325,-264 349,-272 382,-272C401,-272 420,-269 439,-264C458,-259 476,-252 494,-242l0,-133C471,-382 450,-387 430,-390C409,-393 390,-395 372,-395C299,-395 245,-380 211,-351C176,-322 159,-277 159,-215C159,-183 167,-149 183,-114C198,-79 223,-41 256,0M181,1493l182,0l0,-1493l-182,0z"
   id="glyph484" />
<glyph
   unicode="į"
   horiz-adv-x="512"
   d="M232,0l107,0C312,-41 293,-76 280,-105C267,-134 260,-159 260,-180C260,-211 268,-234 285,-249C301,-264 325,-272 358,-272C377,-272 396,-269 415,-264C434,-259 452,-252 470,-242l0,-133C447,-382 426,-387 406,-390C385,-393 366,-395 348,-395C275,-395 221,-380 187,-351C152,-322 135,-277 135,-215C135,-183 143,-149 159,-114C174,-79 199,-41 232,0M174,1120l165,0l0,-1120l-165,0M174,1556l165,0l0,-233l-165,0z"
   id="glyph486" />
<glyph
   unicode="İ"
   horiz-adv-x="543"
   d="M181,1493l182,0l0,-1493l-182,0M181,1872l184,0l0,-205l-184,0z"
   id="glyph488" />
<glyph
   unicode="ı"
   horiz-adv-x="512"
   d="M174,1120l165,0l0,-1120l-165,0z"
   id="glyph490" />
<glyph
   unicode="Ĳ"
   horiz-adv-x="1087"
   d="M725,1493l182,0l0,-1389C907,-76 876,-207 815,-288C753,-369 654,-410 518,-410l-69,0l0,170l56,0C586,-240 643,-215 676,-165C709,-115 725,-25 725,104M181,1493l182,0l0,-1493l-182,0z"
   id="glyph492" />
<glyph
   unicode="ĳ"
   horiz-adv-x="1024"
   d="M685,1120l165,0l0,-1140C850,-163 826,-266 777,-330C728,-394 650,-426 541,-426l-63,0l0,156l44,0C585,-270 628,-254 651,-221C674,-189 685,-122 685,-20M685,1556l165,0l0,-233l-165,0M174,1120l165,0l0,-1120l-165,0M174,1556l165,0l0,-233l-165,0z"
   id="glyph494" />
<glyph
   unicode="Ĵ"
   horiz-adv-x="543"
   d="M189,1901l169,0l190,-266l-125,0l-150,178l-149,-178l-125,0M182,1493l182,0l0,-1389C364,-76 333,-207 272,-288C210,-369 111,-410 -25,-410l-69,0l0,170l56,0C43,-240 100,-215 133,-165C166,-115 182,-25 182,104z"
   id="glyph496" />
<glyph
   unicode="ĵ"
   horiz-adv-x="569"
   d="M191,1638l133,0l221,-376l-125,0l-162,245l-162,-245l-125,0M175,1120l165,0l0,-1140C340,-163 316,-266 267,-330C218,-394 140,-426 31,-426l-63,0l0,156l44,0C75,-270 118,-254 141,-221C164,-189 175,-122 175,-20z"
   id="glyph498" />
<glyph
   unicode="Ķ"
   horiz-adv-x="1208"
   d="M654,-162l190,0l-148,-320l-116,0M181,1493l182,0l0,-631l603,631l234,0l-667,-696l714,-797l-239,0l-645,719l0,-719l-182,0z"
   id="glyph500" />
<glyph
   unicode="ķ"
   horiz-adv-x="1067"
   d="M555,-162l190,0l-148,-320l-116,0M167,1556l167,0l0,-919l494,483l212,0l-535,-524l557,-596l-216,0l-512,547l0,-547l-167,0z"
   id="glyph502" />
<glyph
   unicode="ĸ"
   horiz-adv-x="1067"
   d="M167,1120l167,0l0,-485l494,485l212,0l-535,-526l557,-594l-216,0l-512,545l0,-545l-167,0z"
   id="glyph504" />
<glyph
   unicode="Ĺ"
   horiz-adv-x="1026"
   d="M379,1900l166,0l-205,-264l-138,0M181,1493l182,0l0,-1323l654,0l0,-170l-836,0z"
   id="glyph506" />
<glyph
   unicode="ĺ"
   horiz-adv-x="512"
   d="M361,1900l166,0l-205,-264l-138,0M174,1556l165,0l0,-1556l-165,0z"
   id="glyph508" />
<glyph
   unicode="Ļ"
   horiz-adv-x="1026"
   d="M539,-162l190,0l-148,-320l-116,0M181,1493l182,0l0,-1323l654,0l0,-170l-836,0z"
   id="glyph510" />
<glyph
   unicode="ļ"
   horiz-adv-x="512"
   d="M196,-162l190,0l-148,-320l-116,0M174,1556l165,0l0,-1556l-165,0z"
   id="glyph512" />
<glyph
   unicode="Ľ"
   horiz-adv-x="1026"
   d="M604,1493l179,0l-105,-376l-138,0M181,1493l182,0l0,-1323l654,0l0,-170l-836,0z"
   id="glyph514" />
<glyph
   unicode="ľ"
   horiz-adv-x="691"
   d="M512,1556l179,0l-105,-376l-138,0M174,1556l165,0l0,-1556l-165,0z"
   id="glyph516" />
<glyph
   unicode="Ŀ"
   horiz-adv-x="1026"
   d="M702,957l190,0l0,-254l-190,0M181,1493l182,0l0,-1323l654,0l0,-170l-836,0z"
   id="glyph518" />
<glyph
   unicode="ŀ"
   horiz-adv-x="630"
   d="M390,953l190,0l0,-254l-190,0M174,1556l165,0l0,-1556l-165,0z"
   id="glyph520" />
<glyph
   unicode="Ł"
   horiz-adv-x="1035"
   d="M191,1493l183,0l0,-616l281,219l72,-111l-353,-274l0,-541l654,0l0,-170l-837,0l0,571l-133,-106l-70,110l203,158z"
   id="glyph522" />
<glyph
   unicode="ł"
   horiz-adv-x="523"
   d="M179,1556l166,0l0,-602l112,90l69,-106l-181,-141l0,-797l-166,0l0,666l-111,-88l-66,106l177,141z"
   id="glyph524" />
<glyph
   unicode="Ń"
   horiz-adv-x="1378"
   d="M688,1900l166,0l-205,-264l-138,0M181,1493l245,0l596,-1249l0,1249l176,0l0,-1493l-245,0l-596,1249l0,-1249l-176,0z"
   id="glyph526" />
<glyph
   unicode="ń"
   horiz-adv-x="1168"
   d="M646,1645l179,0l-293,-376l-138,0M1012,676l0,-676l-166,0l0,670C846,776 827,855 790,908C753,961 697,987 623,987C534,987 463,955 412,892C360,829 334,742 334,633l0,-633l-167,0l0,1120l167,0l0,-174C373,1013 420,1064 474,1097C527,1130 589,1147 660,1147C775,1147 863,1107 923,1028C982,948 1012,831 1012,676z"
   id="glyph528" />
<glyph
   unicode="Ņ"
   horiz-adv-x="1378"
   d="M630,-162l190,0l-148,-320l-116,0M181,1493l245,0l596,-1249l0,1249l176,0l0,-1493l-245,0l-596,1249l0,-1249l-176,0z"
   id="glyph530" />
<glyph
   unicode="ņ"
   horiz-adv-x="1168"
   d="M530,-162l190,0l-148,-320l-116,0M1012,676l0,-676l-166,0l0,670C846,776 827,855 790,908C753,961 697,987 623,987C534,987 463,955 412,892C360,829 334,742 334,633l0,-633l-167,0l0,1120l167,0l0,-174C373,1013 420,1064 474,1097C527,1130 589,1147 660,1147C775,1147 863,1107 923,1028C982,948 1012,831 1012,676z"
   id="glyph532" />
<glyph
   unicode="Ň"
   horiz-adv-x="1378"
   d="M181,1493l245,0l596,-1249l0,1249l176,0l0,-1493l-245,0l-596,1249l0,-1249l-176,0M597,1621l-190,266l125,0l149,-178l150,178l125,0l-190,-266z"
   id="glyph534" />
<glyph
   unicode="ň"
   horiz-adv-x="1168"
   d="M1012,676l0,-676l-166,0l0,670C846,776 827,855 790,908C753,961 697,987 623,987C534,987 463,955 412,892C360,829 334,742 334,633l0,-633l-167,0l0,1120l167,0l0,-174C373,1013 420,1064 474,1097C527,1130 589,1147 660,1147C775,1147 863,1107 923,1028C982,948 1012,831 1012,676M521,1262l-220,376l125,0l162,-245l162,245l125,0l-221,-376z"
   id="glyph536" />
<glyph
   unicode="ŉ"
   horiz-adv-x="1499"
   d="M1343,676l0,-676l-166,0l0,670C1177,776 1158,855 1121,908C1084,961 1028,987 954,987C865,987 794,955 743,892C691,829 665,742 665,633l0,-633l-167,0l0,1120l167,0l0,-174C704,1013 751,1064 805,1097C858,1130 920,1147 991,1147C1106,1147 1194,1107 1254,1028C1313,948 1343,831 1343,676M258,1493l190,0l0,-152l-148,-319l-116,0l74,319z"
   id="glyph538" />
<glyph
   unicode="Ŋ"
   horiz-adv-x="1378"
   d="M994,895C994,1180 902,1323 717,1323C610,1323 524,1281 460,1196C395,1111 363,994 363,846l0,-846l-182,0l0,1493l182,0l0,-241C410,1341 464,1408 527,1453C591,1498 669,1520 760,1520C897,1520 1000,1467 1070,1361C1139,1254 1174,1098 1174,893l0,-913C1174,-162 1150,-265 1101,-330C1052,-394 974,-426 865,-426l-78,0l0,156l44,0C892,-270 935,-255 959,-225C982,-195 994,-127 994,-20z"
   id="glyph540" />
<glyph
   unicode="ŋ"
   horiz-adv-x="1168"
   d="M1012,676l0,-696C1012,-163 987,-266 938,-330C889,-394 811,-426 702,-426l-229,0l0,156l210,0C746,-270 789,-254 812,-222C835,-189 846,-122 846,-20l0,690C846,776 827,855 790,908C753,961 697,987 623,987C534,987 463,955 412,892C360,829 334,742 334,633l0,-633l-167,0l0,1120l167,0l0,-174C373,1013 420,1064 473,1097C527,1130 589,1147 660,1147C775,1147 863,1107 922,1028C982,948 1012,831 1012,676z"
   id="glyph542" />
<glyph
   unicode="Ō"
   horiz-adv-x="1450"
   d="M458,1841l538,0l0,-148l-538,0M726,1356C594,1356 489,1301 412,1192C334,1083 295,934 295,745C295,557 334,408 412,299C489,190 594,135 726,135C858,135 963,190 1040,299C1117,408 1156,557 1156,745C1156,934 1117,1083 1040,1192C963,1301 858,1356 726,1356M726,1520C915,1520 1065,1450 1178,1310C1291,1169 1347,981 1347,745C1347,510 1291,322 1178,182C1065,41 915,-29 726,-29C537,-29 387,41 274,181C161,321 104,509 104,745C104,981 161,1169 274,1310C387,1450 537,1520 726,1520z"
   id="glyph544" />
<glyph
   unicode="ō"
   horiz-adv-x="1127"
   d="M296,1525l538,0l0,-148l-538,0M564,991C475,991 405,953 354,876C302,799 276,693 276,559C276,425 302,320 353,243C404,166 475,127 564,127C653,127 723,166 774,243C825,320 851,426 851,559C851,692 825,797 774,875C723,952 653,991 564,991M564,1147C708,1147 821,1095 904,991C986,887 1027,743 1027,559C1027,376 986,232 904,128C821,23 708,-29 564,-29C419,-29 306,23 225,128C143,232 102,376 102,559C102,743 143,887 225,991C306,1095 419,1147 564,1147z"
   id="glyph546" />
<glyph
   unicode="Ŏ"
   horiz-adv-x="1450"
   d="M445,1901l106,0C558,1865 577,1838 607,1819C636,1800 676,1790 726,1790C775,1790 815,1799 844,1818C873,1836 892,1864 902,1901l106,0C1002,1822 975,1762 927,1721C879,1680 812,1659 726,1659C640,1659 573,1679 525,1720C477,1761 450,1821 445,1901M726,1356C594,1356 489,1301 412,1192C334,1083 295,934 295,745C295,557 334,408 412,299C489,190 594,135 726,135C858,135 963,190 1040,299C1117,408 1156,557 1156,745C1156,934 1117,1083 1040,1192C963,1301 858,1356 726,1356M726,1520C915,1520 1065,1450 1178,1310C1291,1169 1347,981 1347,745C1347,510 1291,322 1178,182C1065,41 915,-29 726,-29C537,-29 387,41 274,181C161,321 104,509 104,745C104,981 161,1169 274,1310C387,1450 537,1520 726,1520z"
   id="glyph548" />
<glyph
   unicode="ŏ"
   horiz-adv-x="1127"
   d="M283,1608l106,0C396,1558 414,1521 443,1496C472,1471 512,1458 565,1458C616,1458 657,1470 686,1495C715,1520 733,1557 740,1608l106,0C841,1513 814,1441 767,1393C719,1345 652,1321 565,1321C478,1321 410,1345 363,1393C316,1441 289,1513 283,1608M564,991C475,991 405,953 354,876C302,799 276,693 276,559C276,425 302,320 353,243C404,166 475,127 564,127C653,127 723,166 774,243C825,320 851,426 851,559C851,692 825,797 774,875C723,952 653,991 564,991M564,1147C708,1147 821,1095 904,991C986,887 1027,743 1027,559C1027,376 986,232 904,128C821,23 708,-29 564,-29C419,-29 306,23 225,128C143,232 102,376 102,559C102,743 143,887 225,991C306,1095 419,1147 564,1147z"
   id="glyph550" />
<glyph
   unicode="Ő"
   horiz-adv-x="1450"
   d="M950,1899l167,0l-205,-264l-138,0M649,1899l166,0l-205,-264l-138,0M726,1356C594,1356 489,1301 412,1192C334,1083 295,934 295,745C295,557 334,408 412,299C489,190 594,135 726,135C858,135 963,190 1040,299C1117,408 1156,557 1156,745C1156,934 1117,1083 1040,1192C963,1301 858,1356 726,1356M726,1520C915,1520 1065,1450 1178,1310C1291,1169 1347,981 1347,745C1347,510 1291,322 1178,182C1065,41 915,-29 726,-29C537,-29 387,41 274,181C161,321 104,509 104,745C104,981 161,1169 274,1310C387,1450 537,1520 726,1520z"
   id="glyph552" />
<glyph
   unicode="ő"
   horiz-adv-x="1127"
   d="M832,1638l160,0l-223,-376l-122,0M531,1638l153,0l-201,-376l-123,0M564,991C475,991 405,953 354,876C302,799 276,693 276,559C276,425 302,320 353,243C404,166 475,127 564,127C653,127 723,166 774,243C825,320 851,426 851,559C851,692 825,797 774,875C723,952 653,991 564,991M564,1147C708,1147 821,1095 904,991C986,887 1027,743 1027,559C1027,376 986,232 904,128C821,23 708,-29 564,-29C419,-29 306,23 225,128C143,232 102,376 102,559C102,743 143,887 225,991C306,1095 419,1147 564,1147z"
   id="glyph554" />
<glyph
   unicode="Œ"
   horiz-adv-x="1971"
   d="M1838,1493l0,-170l-668,0l0,-442l640,0l0,-170l-640,0l0,-541l684,0l0,-170l-958,0C636,0 439,63 305,190C171,317 104,503 104,748C104,991 171,1176 305,1303C439,1430 636,1493 896,1493M988,1323l-116,0C679,1323 535,1275 439,1180C343,1084 295,940 295,748C295,555 343,411 439,315C535,218 679,170 872,170l116,0z"
   id="glyph556" />
<glyph
   unicode="œ"
   horiz-adv-x="1885"
   d="M1622,660C1621,761 1595,842 1546,902C1497,961 1431,991 1349,991C1257,991 1183,962 1128,904C1073,846 1041,764 1032,659M1788,606l0,-90l-761,0C1034,389 1069,293 1130,227C1191,160 1276,127 1386,127C1449,127 1511,136 1571,153C1631,170 1691,196 1750,231l0,-174C1690,29 1629,8 1566,-7C1503,-22 1440,-29 1377,-29C1281,-29 1197,-11 1124,26C1051,63 991,117 942,190C899,117 847,62 784,26C721,-11 648,-29 564,-29C419,-29 306,23 225,128C143,232 102,376 102,559C102,743 143,887 225,991C306,1095 419,1147 564,1147C648,1147 722,1129 785,1092C848,1055 900,1000 940,928C987,999 1045,1054 1115,1091C1184,1128 1262,1147 1347,1147C1483,1147 1591,1099 1670,1002C1749,905 1788,773 1788,606M564,991C475,991 405,953 354,876C302,799 276,693 276,559C276,425 302,320 353,243C404,166 475,127 564,127C653,127 723,166 774,243C825,320 851,426 851,559C851,692 825,797 774,875C723,952 653,991 564,991z"
   id="glyph558" />
<glyph
   unicode="Ŕ"
   horiz-adv-x="1280"
   d="M645,1900l166,0l-205,-264l-138,0M818,700C857,685 895,654 932,606C969,558 1006,492 1043,408l185,-408l-196,0l-172,383C816,483 773,549 732,582C690,615 633,631 561,631l-198,0l0,-631l-182,0l0,1493l410,0C745,1493 860,1457 935,1386C1010,1315 1048,1207 1048,1063C1048,969 1029,891 990,829C951,767 893,724 818,700M363,1327l0,-530l228,0C679,797 745,820 790,865C835,910 857,976 857,1063C857,1150 835,1216 790,1261C745,1305 679,1327 591,1327z"
   id="glyph560" />
<glyph
   unicode="ŕ"
   horiz-adv-x="757"
   d="M645,1645l179,0l-293,-376l-138,0M758,948C739,960 719,969 697,975C675,980 651,983 625,983C531,983 459,949 409,882C359,814 334,717 334,590l0,-590l-167,0l0,1120l167,0l0,-174C369,1014 414,1065 470,1098C526,1131 594,1147 673,1147C684,1147 697,1146 711,1145C725,1143 740,1140 757,1137z"
   id="glyph562" />
<glyph
   unicode="Ŗ"
   horiz-adv-x="1280"
   d="M644,-162l190,0l-148,-320l-116,0M818,700C857,685 895,654 932,606C969,558 1006,492 1043,408l185,-408l-196,0l-172,383C816,483 773,549 732,582C690,615 633,631 561,631l-198,0l0,-631l-182,0l0,1493l410,0C745,1493 860,1457 935,1386C1010,1315 1048,1207 1048,1063C1048,969 1029,891 990,829C951,767 893,724 818,700M363,1327l0,-530l228,0C679,797 745,820 790,865C835,910 857,976 857,1063C857,1150 835,1216 790,1261C745,1305 679,1327 591,1327z"
   id="glyph564" />
<glyph
   unicode="ŗ"
   horiz-adv-x="757"
   d="M191,-162l190,0l-148,-320l-116,0M758,948C739,960 719,969 697,975C675,980 651,983 625,983C531,983 459,949 409,882C359,814 334,717 334,590l0,-590l-167,0l0,1120l167,0l0,-174C369,1014 414,1065 470,1098C526,1131 594,1147 673,1147C684,1147 697,1146 711,1145C725,1143 740,1140 757,1137z"
   id="glyph566" />
<glyph
   unicode="Ř"
   horiz-adv-x="1280"
   d="M818,700C857,685 895,654 932,606C969,558 1006,492 1043,408l185,-408l-196,0l-172,383C816,483 773,549 732,582C690,615 633,631 561,631l-198,0l0,-631l-182,0l0,1493l410,0C745,1493 860,1457 935,1386C1010,1315 1048,1207 1048,1063C1048,969 1029,891 990,829C951,767 893,724 818,700M363,1327l0,-530l228,0C679,797 745,820 790,865C835,910 857,976 857,1063C857,1150 835,1216 790,1261C745,1305 679,1327 591,1327M489,1621l-190,266l125,0l149,-178l150,178l125,0l-190,-266z"
   id="glyph568" />
<glyph
   unicode="ř"
   horiz-adv-x="757"
   d="M758,948C739,960 719,969 697,975C675,980 651,983 625,983C531,983 459,949 409,882C359,814 334,717 334,590l0,-590l-167,0l0,1120l167,0l0,-174C369,1014 414,1065 470,1098C526,1131 594,1147 673,1147C684,1147 697,1146 711,1145C725,1143 740,1140 757,1137M418,1262l-220,376l125,0l162,-245l162,245l125,0l-221,-376z"
   id="glyph570" />
<glyph
   unicode="Ś"
   horiz-adv-x="1170"
   d="M645,1900l166,0l-205,-264l-138,0M986,1444l0,-197C917,1284 852,1311 791,1329C730,1347 671,1356 614,1356C515,1356 438,1335 385,1292C331,1249 304,1189 304,1110C304,1044 322,994 358,961C393,927 461,900 561,879l109,-25C806,825 906,775 971,703C1035,630 1067,533 1067,412C1067,267 1024,158 937,83C850,8 722,-29 553,-29C489,-29 421,-21 350,-5C278,11 204,35 127,66l0,208C201,228 273,193 344,170C415,147 484,135 553,135C656,135 736,158 793,203C850,248 878,313 878,397C878,470 858,528 817,569C776,610 710,641 617,662l-110,24C371,716 273,763 213,827C152,891 122,980 122,1094C122,1226 164,1330 248,1406C331,1482 446,1520 593,1520C656,1520 721,1514 786,1501C851,1488 918,1469 986,1444z"
   id="glyph572" />
<glyph
   unicode="ś"
   horiz-adv-x="960"
   d="M646,1645l179,0l-293,-376l-138,0M816,1087l0,-174C769,940 721,960 671,973C620,986 568,993 514,993C432,993 370,979 329,951C288,923 267,881 267,825C267,782 282,749 312,725C341,700 400,677 489,655l56,-14C663,613 747,574 796,523C845,472 870,400 870,309C870,205 833,123 759,62C685,1 583,-29 454,-29C400,-29 344,-23 285,-11C226,0 165,18 100,41l0,190C161,196 222,169 281,152C340,134 399,125 457,125C535,125 595,140 637,170C679,199 700,241 700,295C700,345 685,383 655,410C624,437 558,462 455,487l-57,15C295,526 221,563 176,613C130,662 107,730 107,817C107,922 141,1004 208,1061C275,1118 371,1147 494,1147C555,1147 613,1142 667,1132C721,1122 771,1107 816,1087z"
   id="glyph574" />
<glyph
   unicode="Ŝ"
   horiz-adv-x="1170"
   d="M509,1901l169,0l190,-266l-125,0l-150,178l-149,-178l-125,0M986,1444l0,-197C917,1284 852,1311 791,1329C730,1347 671,1356 614,1356C515,1356 438,1335 385,1292C331,1249 304,1189 304,1110C304,1044 322,994 358,961C393,927 461,900 561,879l109,-25C806,825 906,775 971,703C1035,630 1067,533 1067,412C1067,267 1024,158 937,83C850,8 722,-29 553,-29C489,-29 421,-21 350,-5C278,11 204,35 127,66l0,208C201,228 273,193 344,170C415,147 484,135 553,135C656,135 736,158 793,203C850,248 878,313 878,397C878,470 858,528 817,569C776,610 710,641 617,662l-110,24C371,716 273,763 213,827C152,891 122,980 122,1094C122,1226 164,1330 248,1406C331,1482 446,1520 593,1520C656,1520 721,1514 786,1501C851,1488 918,1469 986,1444z"
   id="glyph576" />
<glyph
   unicode="ŝ"
   horiz-adv-x="960"
   d="M427,1638l133,0l221,-376l-125,0l-162,245l-162,-245l-125,0M816,1087l0,-174C769,940 721,960 671,973C620,986 568,993 514,993C432,993 370,979 329,951C288,923 267,881 267,825C267,782 282,749 312,725C341,700 400,677 489,655l56,-14C663,613 747,574 796,523C845,472 870,400 870,309C870,205 833,123 759,62C685,1 583,-29 454,-29C400,-29 344,-23 285,-11C226,0 165,18 100,41l0,190C161,196 222,169 281,152C340,134 399,125 457,125C535,125 595,140 637,170C679,199 700,241 700,295C700,345 685,383 655,410C624,437 558,462 455,487l-57,15C295,526 221,563 176,613C130,662 107,730 107,817C107,922 141,1004 208,1061C275,1118 371,1147 494,1147C555,1147 613,1142 667,1132C721,1122 771,1107 816,1087z"
   id="glyph578" />
<glyph
   unicode="Ş"
   horiz-adv-x="1170"
   d="M986,1444l0,-197C917,1284 852,1311 791,1329C730,1347 671,1356 614,1356C515,1356 438,1335 385,1292C331,1249 304,1189 304,1110C304,1044 322,994 358,961C393,927 461,900 561,879l109,-25C806,825 906,775 971,703C1035,630 1067,533 1067,412C1067,267 1024,158 937,83C850,8 722,-29 553,-29C489,-29 421,-21 350,-5C278,11 204,35 127,66l0,208C201,228 273,193 344,170C415,147 484,135 553,135C656,135 736,158 793,203C850,248 878,313 878,397C878,470 858,528 817,569C776,610 710,641 617,662l-110,24C371,716 273,763 213,827C152,891 122,980 122,1094C122,1226 164,1330 248,1406C331,1482 446,1520 593,1520C656,1520 721,1514 786,1501C851,1488 918,1469 986,1444M661,0C694,-41 719,-79 735,-114C751,-149 759,-183 759,-215C759,-274 741,-319 705,-349C669,-380 616,-395 545,-395C518,-395 491,-393 465,-389C439,-385 413,-379 387,-371l0,131C407,-251 428,-259 451,-264C473,-269 498,-272 526,-272C561,-272 588,-264 606,-248C624,-232 633,-209 633,-178C633,-158 627,-133 614,-104C601,-75 581,-41 554,0z"
   id="glyph580" />
<glyph
   unicode="ş"
   horiz-adv-x="960"
   d="M816,1087l0,-174C769,940 721,960 671,973C620,986 568,993 514,993C432,993 370,979 329,951C288,923 267,881 267,825C267,782 282,749 312,725C341,700 400,677 489,655l56,-14C663,613 747,574 796,523C845,472 870,400 870,309C870,205 833,123 759,62C685,1 583,-29 454,-29C400,-29 344,-23 285,-11C226,0 165,18 100,41l0,190C161,196 222,169 281,152C340,134 399,125 457,125C535,125 595,140 637,170C679,199 700,241 700,295C700,345 685,383 655,410C624,437 558,462 455,487l-57,15C295,526 221,563 176,613C130,662 107,730 107,817C107,922 141,1004 208,1061C275,1118 371,1147 494,1147C555,1147 613,1142 667,1132C721,1122 771,1107 816,1087M557,0C590,-41 615,-79 631,-114C647,-149 655,-183 655,-215C655,-274 637,-319 601,-349C565,-380 512,-395 441,-395C414,-395 387,-393 361,-389C335,-385 309,-379 283,-371l0,131C303,-251 324,-259 347,-264C369,-269 394,-272 422,-272C457,-272 484,-264 502,-248C520,-232 529,-209 529,-178C529,-158 523,-133 510,-104C497,-75 477,-41 450,0z"
   id="glyph582" />
<glyph
   unicode="Š"
   horiz-adv-x="1170"
   d="M986,1444l0,-197C917,1284 852,1311 791,1329C730,1347 671,1356 614,1356C515,1356 438,1335 385,1292C331,1249 304,1189 304,1110C304,1044 322,994 358,961C393,927 461,900 561,879l109,-25C806,825 906,775 971,703C1035,630 1067,533 1067,412C1067,267 1024,158 937,83C850,8 722,-29 553,-29C489,-29 421,-21 350,-5C278,11 204,35 127,66l0,208C201,228 273,193 344,170C415,147 484,135 553,135C656,135 736,158 793,203C850,248 878,313 878,397C878,470 858,528 817,569C776,610 710,641 617,662l-110,24C371,716 273,763 213,827C152,891 122,980 122,1094C122,1226 164,1330 248,1406C331,1482 446,1520 593,1520C656,1520 721,1514 786,1501C851,1488 918,1469 986,1444M502,1635l-190,266l125,0l149,-178l150,178l125,0l-190,-266z"
   id="glyph584" />
<glyph
   unicode="š"
   horiz-adv-x="960"
   d="M816,1087l0,-174C769,940 721,960 671,973C620,986 568,993 514,993C432,993 370,979 329,951C288,923 267,881 267,825C267,782 282,749 312,725C341,700 400,677 489,655l56,-14C663,613 747,574 796,523C845,472 870,400 870,309C870,205 833,123 759,62C685,1 583,-29 454,-29C400,-29 344,-23 285,-11C226,0 165,18 100,41l0,190C161,196 222,169 281,152C340,134 399,125 457,125C535,125 595,140 637,170C679,199 700,241 700,295C700,345 685,383 655,410C624,437 558,462 455,487l-57,15C295,526 221,563 176,613C130,662 107,730 107,817C107,922 141,1004 208,1061C275,1118 371,1147 494,1147C555,1147 613,1142 667,1132C721,1122 771,1107 816,1087M415,1262l-220,376l125,0l162,-245l162,245l125,0l-221,-376z"
   id="glyph586" />
<glyph
   unicode="Ţ"
   horiz-adv-x="1125"
   d="M609,0C642,-41 667,-79 683,-114C699,-149 707,-183 707,-215C707,-274 689,-319 653,-349C617,-380 564,-395 493,-395C466,-395 439,-393 413,-389C387,-385 361,-379 335,-371l0,131C355,-251 376,-259 399,-264C421,-269 446,-272 474,-272C509,-272 536,-264 554,-248C572,-232 581,-209 581,-178C581,-158 575,-133 562,-104C549,-75 529,-41 502,0M-4,1493l1136,0l0,-170l-477,0l0,-1323l-182,0l0,1323l-477,0z"
   id="glyph588" />
<glyph
   unicode="ţ"
   horiz-adv-x="722"
   d="M508,0C541,-41 566,-79 582,-114C598,-149 606,-183 606,-215C606,-274 588,-319 552,-349C516,-380 463,-395 392,-395C365,-395 338,-393 312,-389C286,-385 260,-379 234,-371l0,131C254,-251 275,-259 298,-264C320,-269 345,-272 373,-272C408,-272 435,-264 453,-248C471,-232 480,-209 480,-178C480,-158 474,-133 461,-104C448,-75 428,-41 401,0M338,1438l0,-318l341,0l0,-143l-341,0l0,-608C338,278 349,219 372,193C394,167 439,154 508,154l171,0l0,-154l-171,0C381,0 293,27 244,80C195,133 171,229 171,369l0,608l-121,0l0,143l121,0l0,318z"
   id="glyph590" />
<glyph
   unicode="Ť"
   horiz-adv-x="1125"
   d="M-4,1493l1136,0l0,-170l-477,0l0,-1323l-182,0l0,1323l-477,0M481,1621l-190,266l125,0l149,-178l150,178l125,0l-190,-266z"
   id="glyph592" />
<glyph
   unicode="ť"
   horiz-adv-x="722"
   d="M338,1438l0,-318l341,0l0,-143l-341,0l0,-608C338,278 349,219 372,193C394,167 439,154 508,154l171,0l0,-154l-171,0C381,0 293,27 244,80C195,133 171,229 171,369l0,608l-121,0l0,143l121,0l0,318M510,1666l179,0l-105,-376l-138,0z"
   id="glyph594" />
<glyph
   unicode="Ŧ"
   horiz-adv-x="1125"
   d="M-4,1493l1136,0l0,-170l-477,0l0,-576l239,0l0,-170l-239,0l0,-577l-182,0l0,577l-239,0l0,170l239,0l0,576l-477,0z"
   id="glyph596" />
<glyph
   unicode="ŧ"
   horiz-adv-x="722"
   d="M338,1438l0,-318l341,0l0,-143l-341,0l0,-233l170,0l0,-142l-170,0l0,-233C338,278 349,219 371,193C394,167 439,154 508,154l171,0l0,-154l-171,0C381,0 293,27 244,80C195,133 171,229 171,369l0,233l-121,0l0,142l121,0l0,233l-121,0l0,143l121,0l0,318z"
   id="glyph598" />
<glyph
   unicode="Ũ"
   horiz-adv-x="1349"
   d="M672,1710l-52,33C605,1752 593,1759 584,1763C575,1766 566,1768 559,1768C538,1768 521,1760 509,1743C497,1726 491,1703 491,1673l0,-6l-113,0C378,1734 394,1788 425,1827C456,1866 497,1886 548,1886C570,1886 590,1883 609,1878C627,1873 650,1861 679,1843l51,-30C744,1804 756,1798 766,1794C776,1790 786,1788 795,1788C814,1788 830,1797 842,1814C854,1831 860,1853 860,1880l0,6l112,0C971,1819 955,1766 924,1727C893,1687 853,1667 802,1667C782,1667 763,1670 745,1675C727,1680 703,1692 672,1710M160,1493l183,0l0,-907C343,426 369,311 422,241C474,170 558,135 675,135C792,135 876,170 928,241C980,311 1006,426 1006,586l0,907l183,0l0,-932C1189,366 1146,219 1059,120C972,21 844,-29 675,-29C505,-29 377,21 290,120C203,219 160,366 160,561z"
   id="glyph600" />
<glyph
   unicode="ũ"
   horiz-adv-x="1168"
   d="M575,1370l-51,55C511,1438 499,1448 489,1455C479,1461 470,1464 463,1464C440,1464 423,1452 412,1428C401,1403 395,1364 394,1309l-112,0C283,1399 299,1469 330,1518C360,1567 402,1591 457,1591C480,1591 502,1586 521,1577C540,1568 560,1552 582,1530l52,-55C647,1462 659,1452 669,1446C678,1439 687,1436 695,1436C718,1436 735,1448 746,1473C757,1497 762,1536 763,1591l113,0C875,1501 859,1432 828,1383C797,1334 755,1309 700,1309C677,1309 656,1314 637,1323C618,1332 597,1348 575,1370M157,442l0,678l165,0l0,-671C322,343 341,264 378,211C415,158 471,131 545,131C635,131 706,163 758,226C809,289 835,376 835,485l0,635l166,0l0,-1120l-166,0l0,172C795,104 749,54 696,21C643,-12 581,-29 510,-29C395,-29 307,11 247,91C187,171 157,288 157,442z"
   id="glyph602" />
<glyph
   unicode="Ū"
   horiz-adv-x="1349"
   d="M406,1841l538,0l0,-148l-538,0M160,1493l183,0l0,-907C343,426 369,311 422,241C474,170 558,135 675,135C792,135 876,170 928,241C980,311 1006,426 1006,586l0,907l183,0l0,-932C1189,366 1146,219 1059,120C972,21 844,-29 675,-29C505,-29 377,21 290,120C203,219 160,366 160,561z"
   id="glyph604" />
<glyph
   unicode="ū"
   horiz-adv-x="1168"
   d="M310,1525l538,0l0,-148l-538,0M157,442l0,678l165,0l0,-671C322,343 341,264 378,211C415,158 471,131 545,131C635,131 706,163 758,226C809,289 835,376 835,485l0,635l166,0l0,-1120l-166,0l0,172C795,104 749,54 696,21C643,-12 581,-29 510,-29C395,-29 307,11 247,91C187,171 157,288 157,442z"
   id="glyph606" />
<glyph
   unicode="Ŭ"
   horiz-adv-x="1349"
   d="M394,1901l106,0C507,1865 526,1838 556,1819C585,1800 625,1790 675,1790C724,1790 764,1799 793,1818C822,1836 841,1864 851,1901l106,0C951,1822 924,1762 876,1721C828,1680 761,1659 675,1659C589,1659 522,1679 474,1720C426,1761 399,1821 394,1901M160,1493l183,0l0,-907C343,426 369,311 422,241C474,170 558,135 675,135C792,135 876,170 928,241C980,311 1006,426 1006,586l0,907l183,0l0,-932C1189,366 1146,219 1059,120C972,21 844,-29 675,-29C505,-29 377,21 290,120C203,219 160,366 160,561z"
   id="glyph608" />
<glyph
   unicode="ŭ"
   horiz-adv-x="1168"
   d="M297,1608l106,0C410,1558 428,1521 457,1496C486,1471 526,1458 579,1458C630,1458 671,1470 700,1495C729,1520 747,1557 754,1608l106,0C855,1513 828,1441 781,1393C733,1345 666,1321 579,1321C492,1321 424,1345 377,1393C330,1441 303,1513 297,1608M157,442l0,678l165,0l0,-671C322,343 341,264 378,211C415,158 471,131 545,131C635,131 706,163 758,226C809,289 835,376 835,485l0,635l166,0l0,-1120l-166,0l0,172C795,104 749,54 696,21C643,-12 581,-29 510,-29C395,-29 307,11 247,91C187,171 157,288 157,442z"
   id="glyph610" />
<glyph
   unicode="Ů"
   horiz-adv-x="1349"
   d="M160,1493l183,0l0,-907C343,426 369,311 422,241C474,170 558,135 675,135C792,135 876,170 928,241C980,311 1006,426 1006,586l0,907l183,0l0,-932C1189,366 1146,219 1059,120C972,21 844,-29 675,-29C505,-29 377,21 290,120C203,219 160,366 160,561M814,1629C814,1671 801,1707 774,1736C747,1765 715,1780 677,1780C638,1780 605,1766 579,1737C553,1708 540,1672 540,1629C540,1586 553,1550 579,1521C605,1492 638,1477 677,1477C715,1477 747,1492 774,1521C801,1550 814,1586 814,1629M923,1629C923,1552 899,1487 852,1434C804,1381 746,1354 677,1354C608,1354 549,1381 502,1434C454,1487 430,1552 430,1629C430,1706 454,1771 502,1824C549,1877 608,1903 677,1903C746,1903 804,1877 852,1824C899,1771 923,1706 923,1629z"
   id="glyph612" />
<glyph
   unicode="ů"
   horiz-adv-x="1168"
   d="M157,442l0,678l165,0l0,-671C322,343 341,264 378,211C415,158 471,131 545,131C635,131 706,163 758,226C809,289 835,376 835,485l0,635l166,0l0,-1120l-166,0l0,172C795,104 749,54 696,21C643,-12 581,-29 510,-29C395,-29 307,11 247,91C187,171 157,288 157,442M710,1464C710,1506 697,1542 670,1571C643,1600 611,1615 573,1615C534,1615 501,1601 475,1572C449,1543 436,1507 436,1464C436,1421 449,1385 475,1356C501,1327 534,1312 573,1312C611,1312 643,1327 670,1356C697,1385 710,1421 710,1464M819,1464C819,1387 795,1322 748,1269C700,1216 642,1189 573,1189C504,1189 445,1216 398,1269C350,1322 326,1387 326,1464C326,1541 350,1606 398,1659C445,1712 504,1738 573,1738C642,1738 700,1712 748,1659C795,1606 819,1541 819,1464z"
   id="glyph614" />
<glyph
   unicode="Ű"
   horiz-adv-x="1349"
   d="M899,1899l167,0l-205,-264l-138,0M598,1899l166,0l-205,-264l-138,0M160,1493l183,0l0,-907C343,426 369,311 422,241C474,170 558,135 675,135C792,135 876,170 928,241C980,311 1006,426 1006,586l0,907l183,0l0,-932C1189,366 1146,219 1059,120C972,21 844,-29 675,-29C505,-29 377,21 290,120C203,219 160,366 160,561z"
   id="glyph616" />
<glyph
   unicode="ű"
   horiz-adv-x="1168"
   d="M846,1638l160,0l-223,-376l-122,0M545,1638l153,0l-201,-376l-123,0M157,442l0,678l165,0l0,-671C322,343 341,264 378,211C415,158 471,131 545,131C635,131 706,163 758,226C809,289 835,376 835,485l0,635l166,0l0,-1120l-166,0l0,172C795,104 749,54 696,21C643,-12 581,-29 510,-29C395,-29 307,11 247,91C187,171 157,288 157,442z"
   id="glyph618" />
<glyph
   unicode="Ų"
   horiz-adv-x="1349"
   d="M160,1493l183,0l0,-907C343,426 369,311 422,241C474,170 558,135 675,135C792,135 876,170 928,241C980,311 1006,426 1006,586l0,907l183,0l0,-932C1189,366 1146,219 1059,120C972,21 844,-29 675,-29C505,-29 377,21 290,120C203,219 160,366 160,561M621,-16l107,0C701,-57 682,-92 669,-121C656,-150 649,-175 649,-196C649,-227 657,-250 674,-265C690,-280 714,-288 747,-288C766,-288 785,-285 804,-280C823,-275 841,-268 859,-258l0,-133C836,-398 815,-403 795,-406C774,-409 755,-411 737,-411C664,-411 610,-396 576,-367C541,-338 524,-293 524,-231C524,-199 532,-165 548,-130C563,-95 588,-57 621,-16z"
   id="glyph620" />
<glyph
   unicode="ų"
   horiz-adv-x="1168"
   d="M157,442l0,678l165,0l0,-671C322,343 341,264 378,211C415,158 471,131 545,131C635,131 706,163 758,226C809,289 835,376 835,485l0,635l166,0l0,-1120l-166,0l0,172C795,104 749,54 696,21C643,-12 581,-29 510,-29C395,-29 307,11 247,91C187,171 157,288 157,442M892,0l107,0C972,-41 953,-76 940,-105C927,-134 920,-159 920,-180C920,-211 928,-234 945,-249C961,-264 985,-272 1018,-272C1037,-272 1056,-269 1075,-264C1094,-259 1112,-252 1130,-242l0,-133C1107,-382 1086,-387 1066,-390C1045,-393 1026,-395 1008,-395C935,-395 881,-380 847,-351C812,-322 795,-277 795,-215C795,-183 803,-149 819,-114C834,-79 859,-41 892,0z"
   id="glyph622" />
<glyph
   unicode="Ŵ"
   horiz-adv-x="1822"
   d="M827,1908l169,0l190,-266l-125,0l-150,178l-149,-178l-125,0M61,1493l184,0l282,-1262l282,1262l204,0l283,-1262l282,1262l184,0l-337,-1493l-229,0l-283,1296l-287,-1296l-228,0z"
   id="glyph624" />
<glyph
   unicode="ŵ"
   horiz-adv-x="1507"
   d="M686,1645l133,0l221,-376l-125,0l-162,245l-162,-245l-125,0M77,1120l166,0l207,-874l206,874l195,0l207,-874l206,874l166,0l-264,-1120l-195,0l-217,918l-218,-918l-195,0z"
   id="glyph626" />
<glyph
   unicode="Ŷ"
   horiz-adv-x="1125"
   d="M480,1908l169,0l190,-266l-125,0l-150,178l-149,-178l-125,0M-3,1493l196,0l372,-614l370,614l196,0l-476,-782l0,-711l-182,0l0,711z"
   id="glyph628" />
<glyph
   unicode="ŷ"
   horiz-adv-x="1090"
   d="M479,1645l133,0l221,-376l-125,0l-162,245l-162,-245l-125,0M593,-104C546,-237 501,-324 457,-365C412,-406 353,-426 278,-426l-132,0l0,154l97,0C288,-272 324,-260 349,-236C374,-212 402,-155 433,-66l30,84l-408,1102l175,0l315,-876l315,876l176,0z"
   id="glyph630" />
<glyph
   unicode="Ÿ"
   horiz-adv-x="1125"
   d="M-3,1493l196,0l372,-614l370,614l196,0l-476,-782l0,-711l-182,0l0,711M650,1870l182,0l0,-203l-182,0M298,1870l183,0l0,-203l-183,0z"
   id="glyph632" />
<glyph
   unicode="Ź"
   horiz-adv-x="1262"
   d="M645,1900l166,0l-205,-264l-138,0M104,1493l1055,0l0,-154l-849,-1169l870,0l0,-170l-1097,0l0,154l849,1169l-828,0z"
   id="glyph634" />
<glyph
   unicode="ź"
   horiz-adv-x="967"
   d="M646,1645l179,0l-293,-376l-138,0M102,1120l786,0l0,-168l-622,-805l622,0l0,-147l-809,0l0,168l623,805l-600,0z"
   id="glyph636" />
<glyph
   unicode="Ż"
   horiz-adv-x="1262"
   d="M520,1870l184,0l0,-205l-184,0M104,1493l1055,0l0,-154l-849,-1169l870,0l0,-170l-1097,0l0,154l849,1169l-828,0z"
   id="glyph638" />
<glyph
   unicode="ż"
   horiz-adv-x="967"
   d="M102,1120l786,0l0,-168l-622,-805l622,0l0,-147l-809,0l0,168l623,805l-600,0M369,1552l184,0l0,-204l-184,0z"
   id="glyph640" />
<glyph
   unicode="Ž"
   horiz-adv-x="1262"
   d="M104,1493l1055,0l0,-154l-849,-1169l870,0l0,-170l-1097,0l0,154l849,1169l-828,0M548,1635l-190,266l125,0l149,-178l150,178l125,0l-190,-266z"
   id="glyph642" />
<glyph
   unicode="ž"
   horiz-adv-x="967"
   d="M102,1120l786,0l0,-168l-622,-805l622,0l0,-147l-809,0l0,168l623,805l-600,0M418,1262l-220,376l125,0l162,-245l162,245l125,0l-221,-376z"
   id="glyph644" />
<glyph
   unicode="ſ"
   horiz-adv-x="648"
   d="M367,0l-166,0l0,977l-159,0l0,143l159,0l0,78C201,1323 227,1414 279,1471C331,1528 414,1556 527,1556l157,0l0,-153l-158,0C466,1403 425,1390 402,1363C379,1336 367,1288 367,1219z"
   id="glyph646" />
<glyph
   unicode="ƀ"
   horiz-adv-x="1170"
   d="M897,559C897,694 872,801 822,878C772,955 703,993 616,993C528,993 459,955 409,878C359,801 334,694 334,559C334,424 359,317 409,240C459,163 528,125 616,125C703,125 772,163 822,240C872,317 897,424 897,559M334,950C369,1017 413,1066 466,1098C519,1131 582,1147 656,1147C779,1147 878,1093 954,985C1031,877 1069,735 1069,559C1069,383 1031,241 954,133C878,25 779,-29 656,-29C582,-29 519,-13 466,20C413,52 369,101 334,168l0,-168l-167,0l0,1284l-138,0l0,125l138,0l0,147l167,0l0,-147l292,0l0,-125l-292,0z"
   id="glyph648" />
<glyph
   unicode="Ɓ"
   horiz-adv-x="1354"
   d="M454,713l0,-547l291,0C843,166 916,189 963,234C1010,279 1033,347 1033,440C1033,533 1010,602 963,647C916,691 843,713 745,713M454,1327l0,-450l269,0C812,877 878,896 922,933C965,970 987,1026 987,1102C987,1177 965,1234 922,1271C878,1308 812,1327 723,1327M272,1493l464,0C875,1493 982,1461 1057,1397C1132,1333 1169,1242 1169,1124C1169,1033 1150,960 1112,906C1073,852 1017,818 942,805C1032,784 1102,739 1151,672C1200,604 1225,519 1225,418C1225,285 1184,182 1103,109C1021,36 905,0 754,0l-482,0l0,1328C193,1328 135,1312 100,1281C65,1249 47,1198 47,1128l0,-49l-140,0l0,70C-93,1270 -64,1357 -7,1412C50,1466 143,1493 272,1493z"
   id="glyph650" />
<glyph
   unicode="Ƃ"
   horiz-adv-x="1405"
   d="M942,439C942,532 919,601 872,646C825,691 752,713 654,713l-291,0l0,-547l291,0C752,166 825,189 872,234C919,279 942,347 942,439M1040,1493l0,-166l-677,0l0,-448l300,0C814,879 930,843 1012,770C1093,697 1134,587 1134,439C1134,292 1095,182 1016,109C937,36 819,0 663,0l-482,0l0,1493z"
   id="glyph652" />
<glyph
   unicode="ƃ"
   horiz-adv-x="1170"
   d="M334,950C369,1017 413,1066 466,1098C519,1131 582,1147 656,1147C779,1147 878,1093 954,985C1031,877 1069,735 1069,559C1069,383 1031,241 954,133C878,25 779,-29 656,-29C582,-29 519,-13 466,20C413,52 369,101 334,168l0,-168l-167,0l0,1556l762,0l0,-166l-595,1M897,559C897,694 872,801 822,878C772,955 703,993 616,993C528,993 459,955 409,878C359,801 334,694 334,559C334,424 359,317 409,240C459,163 528,125 616,125C703,125 772,163 822,240C872,317 897,424 897,559z"
   id="glyph654" />
<glyph
   unicode="Ƅ"
   horiz-adv-x="1264"
   d="M942,439C942,532 918,601 871,646C824,691 752,713 654,713l-291,0l0,-547l291,0C752,166 824,189 871,234C918,279 942,347 942,439M363,1493l0,-614l300,0C814,879 930,843 1012,770C1093,697 1134,587 1134,439C1134,292 1093,182 1012,109C930,36 814,0 663,0l-482,0l0,1092l-181,0l281,401z"
   id="glyph656" />
<glyph
   unicode="ƅ"
   horiz-adv-x="1170"
   d="M334,950C369,1017 413,1066 466,1099C519,1131 582,1147 656,1147C779,1147 878,1093 955,985C1031,877 1069,735 1069,559C1069,383 1031,241 955,133C878,25 779,-29 656,-29C582,-29 519,-13 466,20C413,52 369,101 334,168l0,-168l-167,0l0,1092l-167,0l261,465l73,0M897,559C897,694 872,801 822,878C772,955 703,993 616,993C528,993 459,955 409,878C359,801 334,694 334,559C334,424 359,318 409,241C459,164 528,125 616,125C703,125 772,164 822,241C872,318 897,424 897,559z"
   id="glyph658" />
<glyph
   unicode="Ɔ"
   horiz-adv-x="1296"
   d="M104,1378C166,1425 233,1461 304,1485C375,1508 450,1520 531,1520C734,1520 895,1451 1012,1313C1129,1174 1187,985 1187,745C1187,506 1129,317 1012,179C895,40 734,-29 531,-29C452,-29 377,-17 306,7C235,31 167,67 104,115l0,211C165,263 230,215 299,184C368,153 442,137 520,137C674,137 792,189 873,294C954,398 995,548 995,745C995,942 954,1093 873,1198C792,1302 674,1354 520,1354C442,1354 368,1338 299,1307C230,1276 165,1228 104,1165z"
   id="glyph660" />
<glyph
   unicode="Ƈ"
   horiz-adv-x="1287"
   d="M1187,1378l0,-213C1126,1228 1060,1276 991,1307C922,1338 848,1354 770,1354C617,1354 499,1302 418,1198C336,1093 295,942 295,745C295,548 336,398 418,294C499,189 617,137 770,137C848,137 922,153 991,184C1060,215 1126,263 1187,326l0,-211C1124,67 1056,31 985,7C914,-17 839,-29 760,-29C556,-29 396,40 279,179C162,317 104,506 104,745C104,985 162,1174 279,1313C396,1451 556,1520 760,1520C817,1520 893,1508 986,1484C994,1482 1002,1480 1009,1477C1018,1607 1048,1705 1098,1770C1159,1851 1258,1892 1394,1892l69,0l0,-170l-56,0C1326,1722 1270,1697 1237,1647C1204,1597 1187,1507 1187,1378z"
   id="glyph662" />
<glyph
   unicode="ƈ"
   horiz-adv-x="1013"
   d="M899,1150l0,-245C852,934 806,955 759,970C712,984 664,991 616,991C508,991 424,953 365,878C306,802 276,696 276,559C276,422 306,316 365,241C424,165 508,127 616,127C664,127 712,134 759,149C806,163 852,184 899,213l0,-170C853,19 805,1 756,-11C706,-23 653,-29 598,-29C446,-29 325,24 236,130C147,236 102,379 102,559C102,742 147,885 238,990C328,1095 451,1147 608,1147C651,1147 693,1143 735,1135l0,15C735,1293 759,1396 808,1460C856,1524 934,1556 1043,1556l62,0l0,-156l-43,0C999,1400 957,1384 934,1352C911,1319 899,1252 899,1150z"
   id="glyph664" />
<glyph
   unicode="Ɖ"
   horiz-adv-x="1428"
   d="M190,1493l374,0C824,1493 1015,1433 1137,1313C1258,1192 1319,1004 1319,748C1319,491 1258,302 1136,181C1014,60 823,0 564,0l-374,0l0,700l-181,0l0,144l181,0M373,1327l0,-483l302,0l0,-144l-302,0l0,-534l218,0C776,166 912,213 999,306C1085,399 1128,547 1128,748C1128,948 1085,1095 999,1188C912,1281 776,1327 591,1327z"
   id="glyph666" />
<glyph
   unicode="Ɗ"
   horiz-adv-x="1509"
   d="M454,1327l0,-1161l219,0C858,166 994,213 1081,306C1167,399 1210,547 1210,748C1210,948 1167,1095 1081,1188C994,1281 858,1327 673,1327M272,1493l373,0C906,1493 1097,1433 1219,1313C1340,1192 1401,1004 1401,748C1401,491 1340,302 1218,181C1095,60 904,0 645,0l-373,0l0,1328C193,1328 135,1312 100,1281C65,1249 47,1198 47,1128l0,-49l-140,0l0,70C-93,1270 -64,1357 -7,1412C50,1466 143,1493 272,1493z"
   id="glyph668" />
<glyph
   unicode="Ƌ"
   horiz-adv-x="1264"
   d="M373,439C373,257 469,166 661,166l291,0l0,547l-291,0C563,713 491,691 444,646C397,601 373,532 373,439M373,1493l761,0l0,-1493l-482,0C501,0 385,36 304,109C222,182 181,292 181,440C181,587 222,697 304,770C385,843 501,879 652,879l300,0l0,448l-579,0z"
   id="glyph670" />
<glyph
   unicode="ƌ"
   horiz-adv-x="1170"
   d="M242,1390l0,166l761,0l0,-1556l-166,0l0,168C802,101 759,52 706,20C653,-13 589,-29 514,-29C392,-29 293,25 217,133C140,241 102,383 102,559C102,735 140,877 217,985C293,1093 392,1147 514,1147C589,1147 653,1131 706,1099C759,1066 802,1017 837,950l0,441M273,559C273,424 298,318 348,241C398,164 467,125 554,125C642,125 711,164 762,241C812,318 837,424 837,559C837,694 812,801 762,878C711,955 642,993 554,993C467,993 398,955 348,878C298,801 273,694 273,559z"
   id="glyph672" />
<glyph
   unicode="ƍ"
   horiz-adv-x="1127"
   d="M788,66C882,13 929,-60 929,-154C929,-335 797,-426 532,-426C399,-426 297,-403 225,-356l0,153C286,-250 391,-273 538,-273C686,-273 760,-234 760,-156C760,-95 681,-48 522,-16C397,9 300,58 230,133C145,223 102,358 102,539C102,720 143,862 225,967C307,1071 420,1123 564,1123C707,1123 820,1071 903,967C986,862 1027,718 1026,535C1026,431 1003,336 956,249C909,162 853,101 788,66M851,535C852,670 826,776 775,853C724,929 654,967 565,967C476,967 406,928 355,851C303,774 277,670 277,540C277,411 305,313 362,247C418,180 484,143 560,136C598,132 632,125 663,116C722,144 769,195 802,268C835,341 851,430 851,535z"
   id="glyph674" />
<glyph
   unicode="Ǝ"
   horiz-adv-x="1164"
   d="M984,1493l0,-1493l-866,0l0,170l684,0l0,541l-640,0l0,170l640,0l0,442l-668,0l0,170z"
   id="glyph676" />
<glyph
   unicode="Ə"
   horiz-adv-x="1450"
   d="M105,780l1051,0C1156,959 1115,1099 1032,1201C949,1303 826,1354 662,1354C578,1354 498,1338 423,1306C348,1274 276,1226 209,1163l0,215C276,1425 348,1460 427,1484C506,1508 589,1520 677,1520C887,1520 1051,1452 1170,1316C1288,1179 1347,989 1347,745C1347,510 1291,322 1178,182C1065,41 915,-29 726,-29C529,-29 376,44 268,191C159,337 105,533 105,780M303,614C311,484 353,372 430,277C506,182 605,135 726,135C847,135 946,182 1023,277C1100,372 1142,484 1149,614z"
   id="glyph678" />
<glyph
   unicode="Ɛ"
   horiz-adv-x="1132"
   d="M425,805C346,827 286,867 243,924C200,981 179,1050 179,1133C179,1252 219,1346 300,1416C380,1485 489,1520 627,1520C680,1520 737,1515 798,1504C858,1493 923,1477 992,1456l0,-180C923,1301 861,1320 804,1332C747,1344 693,1350 644,1350C553,1350 483,1330 434,1289C385,1248 360,1189 360,1112C360,1037 384,980 431,941C478,901 547,881 636,881l164,0l0,-166l-156,0C545,715 467,690 412,641C356,591 328,522 328,434C328,339 358,266 418,216C478,166 565,141 679,141C744,141 807,149 867,166C927,183 982,207 1032,240l0,-195C969,20 907,2 848,-10C788,-23 730,-29 673,-29C505,-29 376,11 285,92C194,173 148,287 148,434C148,530 172,611 221,676C270,741 338,784 425,805z"
   id="glyph680" />
<glyph
   unicode="Ƒ"
   horiz-adv-x="1060"
   d="M182,1493l772,0l0,-170l-590,0l0,-440l533,0l0,-170l-533,0l0,-609C364,-76 333,-207 272,-288C210,-369 111,-410 -25,-410l-69,0l0,170l56,0C43,-240 100,-215 133,-165C166,-115 182,-25 182,104z"
   id="glyph682" />
<glyph
   unicode="ƒ"
   horiz-adv-x="648"
   d="M685,1556l0,-153l-158,0C467,1403 426,1390 403,1363C380,1336 368,1288 368,1219l0,-99l273,0l0,-143l-273,0l0,-1045C368,-193 342,-283 290,-340C238,-397 155,-426 41,-426l-156,0l0,153l158,0C102,-273 144,-260 167,-233C190,-206 202,-158 202,-89l0,1066l-159,0l0,143l159,0l0,78C202,1323 228,1414 280,1471C332,1528 415,1556 528,1556z"
   id="glyph684" />
<glyph
   unicode="Ɠ"
   horiz-adv-x="1428"
   d="M1097,213l0,401l-297,0l0,166l477,0l0,-641C1207,84 1130,42 1045,14C960,-15 870,-29 774,-29C564,-29 400,39 282,176C163,312 104,502 104,745C104,989 163,1179 282,1316C400,1452 564,1520 774,1520C828,1520 880,1516 929,1508C978,1499 1023,1487 1064,1470C1064,1595 1094,1697 1155,1775C1215,1853 1313,1892 1449,1892l69,0l0,-170l-56,0C1381,1722 1325,1697 1292,1647C1259,1597 1242,1507 1242,1378l0,-215C1175,1226 1103,1274 1028,1306C952,1338 872,1354 789,1354C625,1354 502,1303 419,1201C336,1099 295,947 295,745C295,544 336,392 419,290C502,188 625,137 789,137C854,137 911,143 962,156C1012,168 1057,187 1097,213z"
   id="glyph686" />
<glyph
   unicode="Ɣ"
   horiz-adv-x="1265"
   d="M633,-259C666,-259 695,-248 721,-227C738,-214 746,-185 746,-141C746,-103 737,-60 718,-11C687,70 659,141 633,202C606,141 578,70 547,-11C528,-60 519,-103 519,-141C519,-185 527,-214 544,-227C571,-248 600,-259 633,-259M633,631l425,862l200,0l-523,-1073C797,287 848,162 888,46C916,-33 930,-95 930,-139C930,-232 907,-300 862,-343C802,-401 726,-430 633,-430C540,-430 464,-401 403,-343C358,-300 336,-232 336,-139C336,-95 350,-33 377,46C418,162 469,287 531,420l-524,1073l200,0z"
   id="glyph688" />
<glyph
   unicode="ƕ"
   horiz-adv-x="1813"
   d="M1220,156C1309,156 1379,189 1430,254C1482,321 1508,407 1508,510C1508,658 1486,769 1442,844C1405,907 1350,950 1277,972l0,148C1412,1101 1512,1043 1577,948C1644,851 1677,711 1677,527C1677,364 1634,235 1548,141C1461,47 1352,0 1219,0l-63,0C1043,0 964,33 917,100C870,167 846,269 846,406l0,264C846,776 827,855 790,908C753,961 697,987 623,987C534,987 463,955 412,892C360,829 334,742 334,633l0,-633l-167,0l0,1556l167,0l0,-610C373,1013 420,1064 474,1097C527,1130 589,1147 660,1147C775,1147 863,1107 923,1028C982,948 1012,831 1012,676l0,-270C1012,308 1023,242 1046,208C1069,173 1111,156 1174,156z"
   id="glyph690" />
<glyph
   unicode="Ɩ"
   horiz-adv-x="651"
   d="M181,1493l182,0l0,-979C363,385 380,295 413,245C446,195 502,170 582,170l57,0l0,-170l-69,0C433,0 334,41 273,122C212,203 181,334 181,514z"
   id="glyph692" />
<glyph
   unicode="Ɨ"
   horiz-adv-x="543"
   d="M181,1493l182,0l0,-746l172,0l0,-170l-172,0l0,-577l-182,0l0,577l-172,0l0,170l172,0z"
   id="glyph694" />
<glyph
   unicode="Ƙ"
   horiz-adv-x="1374"
   d="M1374,1096l-153,0l0,121C1221,1253 1210,1284 1189,1311C1167,1338 1144,1351 1121,1351C1079,1351 1047,1339 1025,1316l-492,-519l714,-797l-239,0l-645,719l0,-719l-182,0l0,1493l182,0l0,-631l558,579C972,1494 1031,1520 1099,1520C1180,1520 1247,1489 1298,1428C1349,1367 1374,1300 1374,1227z"
   id="glyph696" />
<glyph
   unicode="ƙ"
   horiz-adv-x="1067"
   d="M166,1150C166,1293 191,1396 240,1460C289,1524 367,1556 476,1556l172,0l0,-156l-151,0C434,1400 391,1384 368,1352C345,1319 334,1252 334,1150l0,-513l494,483l212,0l-535,-524l557,-596l-216,0l-512,547l0,-547l-167,0z"
   id="glyph698" />
<glyph
   unicode="ƚ"
   horiz-adv-x="512"
   d="M174,1556l165,0l0,-712l160,0l0,-144l-160,0l0,-700l-165,0l0,700l-165,0l0,144l165,0z"
   id="glyph700" />
<glyph
   unicode="ƛ"
   horiz-adv-x="1090"
   d="M55,0l442,1074l-64,188l-270,-101l-30,99l267,99l-67,197l180,0l47,-138l282,104l30,-97l-280,-104l444,-1321l-176,0l-282,828l-348,-828z"
   id="glyph702" />
<glyph
   unicode="Ɯ"
   horiz-adv-x="1795"
   d="M841,213C799,130 749,69 692,30C635,-9 567,-29 489,-29C384,-29 303,12 246,94C189,175 160,291 160,442l0,1051l183,0l0,-1041C343,328 355,248 378,213C412,161 464,135 535,135C620,135 688,167 738,230C788,293 813,380 813,489l0,1004l182,0l0,-1041C995,344 1012,264 1047,212C1081,161 1134,135 1205,135C1279,135 1341,167 1390,230C1440,294 1465,380 1465,489l0,1004l183,0l0,-1495l-183,0l0,174C1427,103 1382,53 1329,20C1276,-13 1214,-29 1141,-29C1068,-29 1005,-8 954,33C903,74 866,134 841,213z"
   id="glyph704" />
<glyph
   unicode="Ɲ"
   horiz-adv-x="1378"
   d="M182,1493l245,0l596,-1249l0,1249l176,0l0,-1493l-245,0l-596,1249l0,-1145C358,-76 327,-207 266,-288C205,-369 106,-410 -30,-410l-64,0l0,170l56,0C43,-240 100,-215 133,-165C166,-115 182,-25 182,104z"
   id="glyph706" />
<glyph
   unicode="ƞ"
   horiz-adv-x="1168"
   d="M1012,676l0,-1102l-166,0l0,1096C846,776 827,855 790,908C753,961 697,987 623,987C534,987 463,955 412,892C360,829 334,742 334,633l0,-633l-167,0l0,1120l167,0l0,-174C373,1013 420,1064 474,1097C527,1130 589,1147 660,1147C775,1147 863,1107 922,1028C982,948 1012,831 1012,676z"
   id="glyph708" />
<glyph
   unicode="Ɵ"
   horiz-adv-x="1450"
   d="M104,745C104,981 161,1169 274,1310C387,1450 537,1520 726,1520C915,1520 1065,1450 1178,1310C1291,1169 1347,981 1347,746C1347,510 1291,322 1178,182C1065,41 915,-29 726,-29C537,-29 387,41 274,181C161,321 104,509 104,745M727,1356C606,1356 507,1309 430,1214C353,1119 311,1007 304,877l846,0C1142,1007 1100,1119 1024,1214C947,1309 848,1356 727,1356M295,710C300,539 340,400 415,294C490,188 594,135 726,135C858,135 961,188 1036,294C1111,399 1150,538 1155,710z"
   id="glyph710" />
<glyph
   unicode="Ơ"
   horiz-adv-x="1683"
   d="M715,1356C583,1356 478,1301 401,1192C323,1083 284,934 284,745C284,557 323,408 401,299C478,190 583,135 715,135C847,135 952,190 1029,299C1106,408 1145,557 1145,745C1145,934 1106,1083 1029,1192C952,1301 847,1356 715,1356M715,1520C904,1520 1054,1450 1167,1310C1280,1169 1336,981 1336,745C1336,510 1280,322 1167,182C1054,41 904,-29 715,-29C526,-29 376,41 263,181C150,321 93,509 93,745C93,981 150,1169 263,1310C376,1450 526,1520 715,1520M1052,1291l0,119C1089,1380 1120,1358 1147,1344C1173,1329 1195,1322 1214,1322C1242,1322 1263,1331 1277,1350C1290,1368 1297,1395 1297,1431C1297,1452 1295,1473 1290,1494C1285,1515 1279,1535 1270,1556l120,0C1396,1531 1401,1507 1404,1484C1407,1461 1408,1440 1408,1420C1408,1339 1395,1279 1369,1241C1342,1202 1301,1183 1246,1183C1217,1183 1187,1192 1156,1210C1124,1227 1089,1254 1052,1291z"
   id="glyph712" />
<glyph
   unicode="ơ"
   horiz-adv-x="1127"
   d="M756,994l0,119C793,1083 824,1061 851,1047C877,1032 899,1025 918,1025C946,1025 967,1034 981,1053C994,1071 1001,1098 1001,1134C1001,1155 999,1176 994,1197C989,1218 983,1238 974,1259l120,0C1100,1234 1105,1210 1108,1187C1111,1164 1112,1143 1112,1123C1112,1042 1099,982 1073,944C1046,905 1005,886 950,886C921,886 891,895 860,913C828,930 793,957 756,994M568,991C479,991 409,953 358,876C306,799 280,693 280,559C280,425 306,320 357,243C408,166 479,127 568,127C657,127 727,166 778,243C829,320 855,426 855,559C855,692 829,797 778,875C727,952 657,991 568,991M568,1147C712,1147 825,1095 908,991C990,887 1031,743 1031,559C1031,376 990,232 908,128C825,23 712,-29 568,-29C423,-29 310,23 229,128C147,232 106,376 106,559C106,743 147,887 229,991C310,1095 423,1147 568,1147z"
   id="glyph714" />
<glyph
   unicode="Ƣ"
   horiz-adv-x="1748"
   d="M1387,0l0,979C1387,1108 1371,1198 1338,1248C1305,1298 1251,1323 1178,1323l0,-1141C1065,41 914,-29 725,-29C537,-29 387,41 274,181C161,321 104,509 104,745C104,981 161,1169 274,1310C387,1450 537,1520 726,1520C793,1520 856,1511 914,1493l266,0C1316,1493 1415,1452 1477,1371C1538,1290 1569,1159 1569,979l0,-979M726,1356C594,1356 489,1301 412,1192C334,1083 295,934 295,746C295,557 334,408 412,299C489,190 594,135 726,135C831,135 922,169 999,238l0,1048C916,1333 825,1356 726,1356z"
   id="glyph716" />
<glyph
   unicode="ƣ"
   horiz-adv-x="1399"
   d="M1066,-426l0,1140C1066,816 1055,883 1032,916C1009,948 967,964 904,964l0,-836C821,23 708,-29 564,-29C419,-29 306,23 225,128C143,232 102,376 102,559C102,743 143,887 225,991C306,1095 419,1147 564,1147C624,1147 679,1138 728,1120l194,0C1031,1120 1110,1088 1159,1024C1208,960 1232,857 1232,714l0,-1140M564,991C475,991 405,953 354,876C302,799 276,693 276,559C276,425 302,320 353,243C404,166 475,127 564,127C641,127 699,146 738,185l0,752C687,973 629,991 564,991z"
   id="glyph718" />
<glyph
   unicode="Ƥ"
   horiz-adv-x="1201"
   d="M454,1327l0,-561l228,0C767,766 832,790 879,839C925,888 948,957 948,1047C948,1136 925,1205 879,1254C832,1303 767,1327 682,1327M272,1493l410,0C833,1493 947,1455 1024,1380C1101,1304 1139,1193 1139,1047C1139,900 1101,788 1024,713C947,638 833,600 682,600l-228,0l0,-600l-182,0l0,1328C193,1328 135,1312 100,1281C65,1249 47,1198 47,1128l0,-49l-140,0l0,70C-93,1270 -64,1357 -7,1412C50,1466 143,1493 272,1493z"
   id="glyph720" />
<glyph
   unicode="ƥ"
   horiz-adv-x="1170"
   d="M334,168l0,-594l-168,0l0,1576C166,1293 191,1396 240,1460C289,1524 367,1556 476,1556l229,0l0,-156l-208,0C434,1400 391,1384 368,1352C345,1319 334,1252 334,1150l0,-200C369,1017 413,1066 466,1099C519,1131 582,1147 656,1147C779,1147 878,1093 955,985C1031,877 1069,735 1069,559C1069,383 1031,241 955,133C878,25 779,-29 656,-29C582,-29 519,-13 466,20C413,52 369,101 334,168M897,559C897,694 872,801 822,878C772,955 703,993 616,993C528,993 459,955 409,878C359,801 334,694 334,559C334,424 359,318 409,241C459,164 528,125 616,125C703,125 772,164 822,241C872,318 897,424 897,559z"
   id="glyph722" />
<glyph
   unicode="Ʀ"
   horiz-adv-x="1280"
   d="M818,436C857,421 895,390 932,342C969,294 1006,228 1043,144l185,-408l-196,0l-172,383C816,219 773,285 732,318C690,351 633,367 561,367l-198,0l0,-367l-182,0l0,1493l182,0l0,-264l228,0C745,1229 860,1193 935,1122C1010,1051 1048,943 1048,799C1048,705 1029,627 990,565C951,503 893,460 818,436M363,1063l0,-559l228,0C676,504 741,528 788,577C834,626 857,695 857,784C857,873 834,942 788,991C742,1039 676,1063 591,1063z"
   id="glyph724" />
<glyph
   unicode="Ƨ"
   horiz-adv-x="1170"
   d="M184,1444C321,1495 457,1520 593,1520C729,1520 839,1482 923,1406C1006,1330 1048,1231 1048,1108C1048,985 1018,891 958,827C897,763 799,716 663,686l-110,-24C460,641 394,610 353,569C312,528 292,468 292,389C292,310 320,248 377,203C434,158 514,135 617,135C752,135 894,181 1043,274l0,-208C888,3 746,-29 617,-29C448,-29 320,8 233,83C146,158 103,267 103,412C103,533 135,630 200,703C264,775 364,825 500,854l109,25C709,900 777,927 813,960C848,994 866,1047 866,1120C866,1192 839,1249 786,1292C732,1335 652,1356 547,1356C442,1356 321,1320 184,1247z"
   id="glyph726" />
<glyph
   unicode="ƨ"
   horiz-adv-x="960"
   d="M144,1087C189,1107 239,1122 293,1132C347,1142 405,1147 466,1147C590,1147 686,1118 753,1061C820,1004 853,922 853,817C853,730 830,662 785,613C739,563 665,526 562,502l-57,-15C402,462 336,437 306,410C275,383 260,345 260,295C260,241 281,199 323,170C365,140 425,125 503,125C561,125 620,134 680,152C739,169 799,196 860,231l0,-190C795,18 734,0 676,-11C617,-23 561,-29 507,-29C377,-29 275,1 201,62C127,123 90,205 90,309C90,400 115,472 164,523C213,574 297,613 415,641l57,14C561,677 620,700 649,725C678,749 693,782 693,825C693,881 673,923 632,951C591,979 529,993 446,993C392,993 340,986 290,973C239,960 191,940 144,913z"
   id="glyph728" />
<glyph
   unicode="Ʃ"
   horiz-adv-x="1164"
   d="M390,170l657,0l0,-170l-866,0l0,170l431,624l-431,529l0,170l849,0l0,-170l-640,0l431,-525z"
   id="glyph730" />
<glyph
   unicode="ƪ"
   horiz-adv-x="619"
   d="M338,1130l0,-1219C338,-158 350,-206 373,-233C396,-260 437,-273 496,-273l158,0l0,-153l-156,0C385,-426 302,-397 250,-340C197,-283 171,-193 171,-68l0,1198l-171,0C-162,1130 -243,1200 -243,1340C-243,1484 -152,1556 30,1556C139,1556 217,1524 266,1460C298,1417 319,1359 330,1285l172,0l0,-155M162,1284C157,1313 149,1336 140,1352C120,1384 77,1400 11,1400C-64,1400 -102,1378 -104,1335C-105,1301 -70,1284 1,1284z"
   id="glyph732" />
<glyph
   unicode="ƫ"
   horiz-adv-x="722"
   d="M338,1438l0,-318l341,0l0,-143l-341,0l0,-608C338,278 349,219 372,193C394,167 439,154 508,154l171,0l0,-174C679,-163 654,-266 605,-330C556,-394 477,-426 369,-426l-63,0l0,156l43,0C413,-270 456,-254 479,-222C502,-189 513,-122 513,-20l0,20C385,0 296,27 246,80C196,133 171,229 171,369l0,608l-121,0l0,143l121,0l0,318z"
   id="glyph734" />
<glyph
   unicode="Ƭ"
   horiz-adv-x="1125"
   d="M387,1493l744,0l0,-170l-477,0l0,-1323l-182,0l0,1323l-85,0C308,1323 250,1308 215,1278C180,1248 162,1198 162,1128l0,-49l-140,0l0,70C22,1270 51,1357 108,1412C165,1466 258,1493 387,1493z"
   id="glyph736" />
<glyph
   unicode="ƭ"
   horiz-adv-x="722"
   d="M338,1219l0,-99l341,0l0,-143l-341,0l0,-608C338,278 349,219 372,193C394,167 439,154 508,154l171,0l0,-154l-171,0C381,0 293,27 244,80C195,133 171,229 171,369l0,608l-121,0l0,143l121,0l0,78C171,1323 197,1414 250,1471C302,1528 385,1556 498,1556l156,0l0,-153l-158,0C437,1403 396,1390 373,1363C350,1336 338,1288 338,1219z"
   id="glyph738" />
<glyph
   unicode="Ʈ"
   horiz-adv-x="1125"
   d="M-4,1493l1136,0l0,-170l-477,0l0,-1219C655,-25 672,-115 705,-165C738,-215 794,-240 875,-240l57,0l0,-170l-71,0C725,-410 626,-369 565,-288C504,-207 473,-76 473,104l0,1219l-477,0z"
   id="glyph740" />
<glyph
   unicode="Ư"
   horiz-adv-x="1581"
   d="M156,1513l183,0l0,-907C339,446 365,331 418,261C470,190 554,155 671,155C788,155 872,190 924,261C976,331 1002,446 1002,606l0,907l183,0l0,-932C1185,386 1142,239 1055,140C968,41 840,-9 671,-9C501,-9 373,41 286,140C199,239 156,386 156,581M1112,1291l0,119C1149,1380 1180,1358 1207,1344C1233,1329 1255,1322 1274,1322C1302,1322 1323,1331 1337,1350C1350,1368 1357,1395 1357,1431C1357,1452 1355,1473 1350,1494C1345,1515 1339,1535 1330,1556l120,0C1456,1531 1461,1507 1464,1484C1467,1461 1468,1440 1468,1420C1468,1339 1455,1279 1429,1241C1402,1202 1361,1183 1306,1183C1277,1183 1247,1192 1216,1210C1184,1227 1149,1254 1112,1291z"
   id="glyph742" />
<glyph
   unicode="ư"
   horiz-adv-x="1168"
   d="M891,994l0,119C928,1083 959,1061 986,1047C1012,1032 1034,1025 1053,1025C1081,1025 1102,1034 1116,1053C1129,1071 1136,1098 1136,1134C1136,1155 1134,1176 1129,1197C1124,1218 1118,1238 1109,1259l120,0C1235,1234 1240,1210 1243,1187C1246,1164 1247,1143 1247,1123C1247,1042 1234,982 1208,944C1181,905 1140,886 1085,886C1056,886 1026,895 995,913C963,930 928,957 891,994M159,442l0,678l165,0l0,-671C324,343 343,264 380,211C417,158 473,131 547,131C637,131 708,163 760,226C811,289 837,376 837,485l0,635l166,0l0,-1120l-166,0l0,172C797,104 751,54 698,21C645,-12 583,-29 512,-29C397,-29 309,11 249,91C189,171 159,288 159,442z"
   id="glyph744" />
<glyph
   unicode="Ʊ"
   horiz-adv-x="1408"
   d="M1338,1304l-288,0C1147,1210 1216,1114 1259,1015C1302,916 1323,802 1323,673C1323,467 1265,299 1150,168C1035,37 886,-29 704,-29C521,-29 372,37 257,168C142,299 85,471 85,683C85,806 107,917 150,1016C193,1115 262,1211 357,1304l-287,0l0,178l540,0l0,-178C503,1239 420,1152 361,1041C301,930 271,808 271,673C271,514 311,386 390,289C469,192 574,143 704,143C833,143 938,191 1017,288C1096,385 1136,513 1136,673C1136,808 1106,930 1047,1041C988,1152 905,1239 798,1304l0,178l540,0z"
   id="glyph746" />
<glyph
   unicode="Ʋ"
   horiz-adv-x="1328"
   d="M639,141C768,141 873,189 952,286C1031,383 1071,511 1071,671C1071,806 1041,928 982,1039C943,1112 890,1177 824,1235l0,68l162,-1C1082,1208 1151,1112 1194,1013C1237,914 1258,800 1258,671C1258,465 1200,296 1085,165C970,34 822,-31 639,-31l-69,2C431,-25 332,16 274,93C212,174 181,305 181,485l0,1008l182,0l0,-1008C363,356 380,266 413,216C446,166 502,141 582,141z"
   id="glyph748" />
<glyph
   unicode="Ƴ"
   horiz-adv-x="1370"
   d="M1116,1351C1082,1351 1059,1346 1046,1337C1023,1321 1007,1305 997,1288l-342,-577l0,-711l-182,0l0,711l-476,782l196,0l372,-614l301,505C920,1475 996,1520 1094,1520C1175,1520 1242,1489 1293,1428C1344,1367 1369,1300 1369,1227l0,-131l-153,0l0,121C1216,1253 1205,1284 1183,1311C1161,1338 1139,1351 1116,1351z"
   id="glyph750" />
<glyph
   unicode="ƴ"
   horiz-adv-x="1344"
   d="M593,-104C546,-237 501,-324 457,-365C412,-406 353,-426 278,-426l-132,0l0,154l97,0C288,-272 324,-260 349,-236C374,-212 402,-155 433,-66l30,84l-408,1102l175,0l315,-876l254,704C812,983 832,1017 861,1051C914,1115 981,1147 1062,1147C1141,1147 1208,1115 1263,1052C1318,988 1346,911 1346,822l0,-114l-160,0l0,114C1186,861 1174,894 1150,922C1125,950 1096,964 1062,964C1028,964 999,950 974,922C962,909 953,894 947,877z"
   id="glyph752" />
<glyph
   unicode="Ƶ"
   horiz-adv-x="1262"
   d="M104,1493l1055,0l0,-154l-360,-495l253,0l0,-144l-357,0l-385,-530l870,0l0,-170l-1097,0l0,154l397,546l-269,0l0,144l373,0l348,479l-828,0z"
   id="glyph754" />
<glyph
   unicode="ƶ"
   horiz-adv-x="967"
   d="M102,1120l786,0l0,-168l-226,-292l175,0l0,-144l-286,0l-285,-369l622,0l0,-147l-809,0l0,168l269,348l-190,0l0,144l302,0l242,313l-600,0z"
   id="glyph756" />
<glyph
   unicode="Ʒ"
   horiz-adv-x="1227"
   d="M612,107C727,107 815,132 874,182C934,232 964,305 964,400C964,489 936,558 881,607C825,656 748,681 649,681l-157,0l0,166l347,476l-695,0l0,170l922,0l0,-168l-370,-476C759,849 829,830 906,793C965,765 1020,715 1072,642C1121,573 1145,492 1145,400C1145,253 1099,139 1008,58C917,-23 787,-63 619,-63C548,-63 475,-57 400,-44C324,-32 246,-14 166,11l0,195C229,173 299,149 375,132C451,115 530,107 612,107z"
   id="glyph758" />
<glyph
   unicode="Ƹ"
   horiz-adv-x="1227"
   d="M616,107C698,107 777,115 852,132C929,149 999,173 1062,206l0,-195C981,-14 903,-32 828,-44C753,-57 680,-63 608,-63C440,-63 311,-23 220,58C193,82 173,104 161,123l-25,41C101,221 83,299 83,400C83,492 107,573 156,642C207,715 262,765 321,793C398,830 468,849 532,849l-370,476l0,168l922,0l0,-170l-695,0l346,-476l0,-166l-156,0C480,681 402,656 346,607C291,558 264,489 264,400C264,305 294,232 354,182C413,132 501,107 616,107z"
   id="glyph760" />
<glyph
   unicode="ƹ"
   horiz-adv-x="1064"
   d="M543,476l-370,476l0,168l786,0l0,-147l-600,0l387,-499l0,-166l-156,0C491,308 413,283 357,234C302,184 274,115 274,27C274,-68 304,-141 364,-191C424,-241 511,-266 625,-266C690,-266 753,-258 813,-241C873,-224 928,-200 978,-167l0,-195C915,-387 853,-405 793,-418C734,-430 676,-436 619,-436C451,-436 321,-396 230,-315C208,-296 189,-274 172,-250l-25,41C112,-144 94,-65 94,27C94,119 118,200 166,269C218,342 273,392 332,420C409,457 479,476 543,476z"
   id="glyph762" />
<glyph
   unicode="ƺ"
   horiz-adv-x="967"
   d="M575,-274C626,-274 674,-267 720,-253C767,-239 815,-217 864,-188l0,-179C812,-388 762,-403 714,-412C662,-421 607,-426 549,-426C261,-426 117,-332 117,-145C117,14 239,111 482,146C653,171 738,216 738,281C738,364 667,405 526,405l-260,0l436,568l-600,0l0,147l786,0l0,-168l-318,-412C790,540 900,464 900,311C900,127 761,19 482,-14C347,-30 279,-70 279,-135C279,-228 378,-274 575,-274z"
   id="glyph764" />
<glyph
   unicode="ƻ"
   horiz-adv-x="1172"
   d="M354,170l634,0l0,-170l-853,0l0,170l283,320l103,117l-310,0l0,144l433,0C701,824 741,884 763,932C786,983 798,1032 798,1081C798,1160 773,1225 724,1275C673,1325 608,1350 527,1350C470,1350 410,1339 347,1317C284,1295 216,1262 144,1217l0,204C217,1454 286,1478 350,1495C413,1512 471,1520 524,1520C663,1520 774,1481 857,1404C940,1327 981,1223 981,1094C981,1033 971,975 950,920C931,871 900,815 856,751l94,0l0,-144l-213,0l-43,-49z"
   id="glyph766" />
<glyph
   unicode="Ƽ"
   horiz-adv-x="1227"
   d="M265,400C265,205 382,107 615,107C848,107 965,205 965,400C965,489 937,559 882,608C826,657 749,681 650,681l-469,0l0,812l836,0l0,-170l-654,0l0,-475l334,1C850,850 976,781 1073,642C1122,573 1146,490 1146,394C1146,298 1128,221 1093,164l-26,-41C1056,104 1036,82 1009,58C918,-23 786,-63 615,-63C443,-63 312,-23 221,58C130,139 84,253 84,400z"
   id="glyph768" />
<glyph
   unicode="ƽ"
   horiz-adv-x="1064"
   d="M94,-167C195,-233 308,-266 432,-266C675,-266 797,-168 797,27C797,116 769,186 714,235C659,284 581,308 482,308l-317,0l0,812l713,0l0,-170l-548,0l0,-474l199,0C592,476 658,460 727,427C795,394 854,342 904,271C953,200 978,117 978,21C978,-75 960,-152 925,-209l-25,-41C888,-269 869,-291 842,-315C751,-396 621,-436 453,-436C340,-436 221,-411 94,-362z"
   id="glyph770" />
<glyph
   unicode="ƾ"
   horiz-adv-x="940"
   d="M490,998l-1,-125C591,853 675,803 742,724C807,647 840,552 840,439C840,315 807,211 741,128C658,23 535,-29 370,-29C319,-29 269,-23 220,-11C172,0 125,18 79,41l0,172C123,186 170,165 220,149C267,134 315,127 363,127C470,127 554,165 613,241C647,284 664,350 665,439C665,504 648,562 613,613C562,689 478,727 363,727l-56,0l2,271l-206,0l0,164l206,0l0,276l181,0l0,-276l208,0l0,-164z"
   id="glyph772" />
<glyph
   unicode="ƿ"
   horiz-adv-x="1170"
   d="M334,-122l0,-304l-167,0l0,1546l167,0l0,-170C365,994 421,1043 502,1098C551,1131 638,1147 764,1147C875,1147 953,1110 999,1035C1046,960 1069,871 1069,769C1069,486 824,189 334,-122M334,60C709,327 897,543 897,709C897,798 880,864 846,908C813,951 760,973 688,973C556,973 438,893 334,734z"
   id="glyph774" />
<glyph
   unicode="ǀ"
   horiz-adv-x="543"
   d="M181,1493l182,0l0,-1919l-182,0z"
   id="glyph776" />
<glyph
   unicode="ǁ"
   horiz-adv-x="907"
   d="M545,1493l182,0l0,-1919l-182,0M181,1493l182,0l0,-1919l-182,0z"
   id="glyph778" />
<glyph
   unicode="ǂ"
   horiz-adv-x="846"
   d="M334,1493l182,0l0,-617l316,0l0,-168l-316,0l0,-240l316,0l0,-170l-316,0l0,-724l-182,0l0,724l-316,0l0,170l316,0l0,240l-316,0l0,168l316,0z"
   id="glyph780" />
<glyph
   unicode="ǃ"
   horiz-adv-x="544"
   d="M181,254l183,0l0,-254l-183,0M181,1493l183,0l0,-655l-18,-357l-146,0l-19,357z"
   id="glyph782" />
<glyph
   unicode="Ǆ"
   horiz-adv-x="2620"
   d="M1415,1493l1055,0l0,-154l-849,-1169l870,0l0,-170l-1097,0l0,154l849,1169l-828,0M1859,1635l-190,266l125,0l149,-178l150,178l125,0l-190,-266M363,1327l0,-1161l219,0C767,166 903,213 990,306C1076,399 1119,547 1119,748C1119,948 1076,1095 990,1188C903,1281 767,1327 582,1327M181,1493l373,0C815,1493 1006,1433 1128,1313C1249,1192 1310,1004 1310,748C1310,491 1249,302 1127,181C1004,60 813,0 554,0l-373,0z"
   id="glyph784" />
<glyph
   unicode="ǅ"
   horiz-adv-x="2394"
   d="M1446,1120l786,0l0,-168l-622,-805l622,0l0,-147l-809,0l0,168l623,805l-600,0M1762,1262l-220,376l125,0l162,-245l162,245l125,0l-221,-376M363,1327l0,-1161l219,0C767,166 903,213 990,306C1076,399 1119,547 1119,748C1119,948 1076,1095 990,1188C903,1281 767,1327 582,1327M181,1493l373,0C815,1493 1006,1433 1128,1313C1249,1192 1310,1004 1310,748C1310,491 1249,302 1127,181C1004,60 813,0 554,0l-373,0z"
   id="glyph786" />
<glyph
   unicode="ǆ"
   horiz-adv-x="2127"
   d="M1187,1120l786,0l0,-168l-622,-805l622,0l0,-147l-809,0l0,168l623,805l-600,0M1503,1262l-220,376l125,0l162,-245l162,245l125,0l-221,-376M837,950l0,606l166,0l0,-1556l-166,0l0,168C802,101 759,52 706,20C653,-13 589,-29 514,-29C392,-29 293,25 217,133C140,241 102,383 102,559C102,735 140,877 217,985C293,1093 392,1147 514,1147C589,1147 653,1131 706,1099C759,1066 802,1017 837,950M273,559C273,424 298,318 348,241C398,164 467,125 554,125C642,125 711,164 762,241C812,318 837,424 837,559C837,694 812,801 762,878C711,955 642,993 554,993C467,993 398,955 348,878C298,801 273,694 273,559z"
   id="glyph788" />
<glyph
   unicode="Ǉ"
   horiz-adv-x="1539"
   d="M1233,1493l182,0l0,-1389C1415,-76 1384,-207 1323,-288C1261,-369 1162,-410 1026,-410l-69,0l0,170l56,0C1094,-240 1151,-215 1184,-165C1217,-115 1233,-25 1233,104M181,1493l182,0l0,-1323l654,0l0,-170l-836,0z"
   id="glyph790" />
<glyph
   unicode="ǈ"
   horiz-adv-x="1449"
   d="M1186,1120l165,0l0,-1140C1351,-163 1327,-266 1278,-330C1229,-394 1151,-426 1042,-426l-63,0l0,156l44,0C1086,-270 1129,-254 1152,-221C1175,-189 1186,-122 1186,-20M1186,1556l165,0l0,-233l-165,0M181,1493l182,0l0,-1323l654,0l0,-170l-836,0z"
   id="glyph792" />
<glyph
   unicode="ǉ"
   horiz-adv-x="841"
   d="M511,1120l165,0l0,-1140C676,-163 652,-266 603,-330C554,-394 476,-426 367,-426l-63,0l0,156l44,0C411,-270 454,-254 477,-221C500,-189 511,-122 511,-20M511,1556l165,0l0,-233l-165,0M174,1556l165,0l0,-1556l-165,0z"
   id="glyph794" />
<glyph
   unicode="Ǌ"
   horiz-adv-x="1716"
   d="M1419,1493l182,0l0,-1389C1601,-76 1570,-207 1509,-288C1447,-369 1348,-410 1212,-410l-69,0l0,170l56,0C1280,-240 1337,-215 1370,-165C1403,-115 1419,-25 1419,104M181,1493l245,0l596,-1249l0,1249l176,0l0,-1493l-245,0l-596,1249l0,-1249l-176,0z"
   id="glyph796" />
<glyph
   unicode="ǋ"
   horiz-adv-x="1702"
   d="M1382,1120l165,0l0,-1140C1547,-163 1523,-266 1474,-330C1425,-394 1347,-426 1238,-426l-63,0l0,156l44,0C1282,-270 1325,-254 1348,-221C1371,-189 1382,-122 1382,-20M1382,1556l165,0l0,-233l-165,0M181,1493l245,0l596,-1249l0,1249l176,0l0,-1493l-245,0l-596,1249l0,-1249l-176,0z"
   id="glyph798" />
<glyph
   unicode="ǌ"
   horiz-adv-x="1469"
   d="M1186,1120l165,0l0,-1140C1351,-163 1327,-266 1278,-330C1229,-394 1151,-426 1042,-426l-63,0l0,156l44,0C1086,-270 1129,-254 1152,-221C1175,-189 1186,-122 1186,-20M1186,1556l165,0l0,-233l-165,0M1012,676l0,-676l-166,0l0,670C846,776 827,855 790,908C753,961 697,987 623,987C534,987 463,955 412,892C360,829 334,742 334,633l0,-633l-167,0l0,1120l167,0l0,-174C373,1013 420,1064 474,1097C527,1130 589,1147 660,1147C775,1147 863,1107 923,1028C982,948 1012,831 1012,676z"
   id="glyph800" />
<glyph
   unicode="Ǎ"
   horiz-adv-x="1260"
   d="M630,1294l-247,-743l495,0M527,1493l207,0l512,-1493l-189,0l-123,383l-606,0l-122,-383l-192,0M548,1635l-190,266l125,0l149,-178l150,178l125,0l-190,-266z"
   id="glyph802" />
<glyph
   unicode="ǎ"
   horiz-adv-x="1129"
   d="M632,563C498,563 405,546 354,512C302,478 276,420 276,338C276,273 295,221 334,183C373,144 425,125 492,125C584,125 658,161 713,234C768,306 796,402 796,522l0,41M962,639l0,-639l-166,0l0,170C759,102 712,52 656,20C599,-13 530,-29 448,-29C345,-29 263,3 202,68C141,132 111,218 111,326C111,452 149,547 225,611C300,675 413,707 564,707l232,0l0,18C796,810 771,875 721,922C671,968 601,991 510,991C453,991 397,983 342,968C287,953 235,930 184,899l0,170C245,1095 304,1115 361,1128C418,1141 473,1147 527,1147C673,1147 782,1105 854,1021C926,937 962,810 962,639M475,1262l-220,376l125,0l162,-245l162,245l125,0l-221,-376z"
   id="glyph804" />
<glyph
   unicode="Ǐ"
   horiz-adv-x="543"
   d="M181,1493l182,0l0,-1493l-182,0M189,1635l-190,266l125,0l149,-178l150,178l125,0l-190,-266z"
   id="glyph806" />
<glyph
   unicode="ǐ"
   horiz-adv-x="512"
   d="M174,1120l165,0l0,-1120l-165,0M192,1262l-220,376l125,0l162,-245l162,245l125,0l-221,-376z"
   id="glyph808" />
<glyph
   unicode="Ǒ"
   horiz-adv-x="1450"
   d="M726,1356C594,1356 489,1301 412,1192C334,1083 295,934 295,745C295,557 334,408 412,299C489,190 594,135 726,135C858,135 963,190 1040,299C1117,408 1156,557 1156,745C1156,934 1117,1083 1040,1192C963,1301 858,1356 726,1356M726,1520C915,1520 1065,1450 1178,1310C1291,1169 1347,981 1347,745C1347,510 1291,322 1178,182C1065,41 915,-29 726,-29C537,-29 387,41 274,181C161,321 104,509 104,745C104,981 161,1169 274,1310C387,1450 537,1520 726,1520M642,1635l-190,266l125,0l149,-178l150,178l125,0l-190,-266z"
   id="glyph810" />
<glyph
   unicode="ǒ"
   horiz-adv-x="1127"
   d="M564,991C475,991 405,953 354,876C302,799 276,693 276,559C276,425 302,320 353,243C404,166 475,127 564,127C653,127 723,166 774,243C825,320 851,426 851,559C851,692 825,797 774,875C723,952 653,991 564,991M564,1147C708,1147 821,1095 904,991C986,887 1027,743 1027,559C1027,376 986,232 904,128C821,23 708,-29 564,-29C419,-29 306,23 225,128C143,232 102,376 102,559C102,743 143,887 225,991C306,1095 419,1147 564,1147M500,1262l-220,376l125,0l162,-245l162,245l125,0l-221,-376z"
   id="glyph812" />
<glyph
   unicode="Ǔ"
   horiz-adv-x="1349"
   d="M160,1493l183,0l0,-907C343,426 369,311 422,241C474,170 558,135 675,135C792,135 876,170 928,241C980,311 1006,426 1006,586l0,907l183,0l0,-932C1189,366 1146,219 1059,120C972,21 844,-29 675,-29C505,-29 377,21 290,120C203,219 160,366 160,561M598,1635l-190,266l125,0l149,-178l150,178l125,0l-190,-266z"
   id="glyph814" />
<glyph
   unicode="ǔ"
   horiz-adv-x="1168"
   d="M157,442l0,678l165,0l0,-671C322,343 341,264 378,211C415,158 471,131 545,131C635,131 706,163 758,226C809,289 835,376 835,485l0,635l166,0l0,-1120l-166,0l0,172C795,104 749,54 696,21C643,-12 581,-29 510,-29C395,-29 307,11 247,91C187,171 157,288 157,442M500,1262l-220,376l125,0l162,-245l162,245l125,0l-221,-376z"
   id="glyph816" />
<glyph
   unicode="Ǖ"
   horiz-adv-x="1349"
   d="M405,2099l538,0l0,-148l-538,0M758,1838l182,0l0,-203l-182,0M406,1838l183,0l0,-203l-183,0M160,1493l183,0l0,-907C343,426 369,311 422,241C474,170 558,135 675,135C792,135 876,170 928,241C980,311 1006,426 1006,586l0,907l183,0l0,-932C1189,366 1146,219 1059,120C972,21 844,-29 675,-29C505,-29 377,21 290,120C203,219 160,366 160,561z"
   id="glyph818" />
<glyph
   unicode="ǖ"
   horiz-adv-x="1168"
   d="M303,1841l538,0l0,-148l-538,0M157,442l0,678l165,0l0,-671C322,343 341,264 378,211C415,158 471,131 545,131C635,131 706,163 758,226C809,289 835,376 835,485l0,635l166,0l0,-1120l-166,0l0,172C795,104 749,54 696,21C643,-12 581,-29 510,-29C395,-29 307,11 247,91C187,171 157,288 157,442M656,1552l183,0l0,-202l-183,0M305,1552l182,0l0,-202l-182,0z"
   id="glyph820" />
<glyph
   unicode="Ǘ"
   horiz-adv-x="1349"
   d="M209,1493l183,0l0,-907C392,426 418,311 471,241C523,170 607,135 724,135C841,135 925,170 977,241C1029,311 1055,426 1055,586l0,907l183,0l0,-932C1238,366 1195,219 1108,120C1021,21 893,-29 724,-29C554,-29 426,21 339,120C252,219 209,366 209,561M776,2138l166,0l-205,-264l-138,0M764,1838l182,0l0,-203l-182,0M412,1838l183,0l0,-203l-183,0z"
   id="glyph822" />
<glyph
   unicode="ǘ"
   horiz-adv-x="1168"
   d="M98,130l0,678l165,0l0,-671C263,31 282,-48 319,-101C356,-154 412,-181 486,-181C576,-181 647,-149 699,-86C750,-23 776,64 776,173l0,635l166,0l0,-1120l-166,0l0,172C736,-208 690,-258 637,-291C584,-324 522,-341 451,-341C336,-341 248,-301 188,-221C128,-141 98,-24 98,130M668,1826l166,0l-205,-264l-138,0M656,1526l182,0l0,-203l-182,0M304,1526l183,0l0,-203l-183,0z"
   id="glyph824" />
<glyph
   unicode="Ǚ"
   horiz-adv-x="1349"
   d="M203,1493l183,0l0,-907C386,426 412,311 465,241C517,170 601,135 718,135C835,135 919,170 971,241C1023,311 1049,426 1049,586l0,907l183,0l0,-932C1232,366 1189,219 1102,120C1015,21 887,-29 718,-29C548,-29 420,21 333,120C246,219 203,366 203,561M589,1872l-190,266l125,0l149,-178l150,178l125,0l-190,-266M758,1838l182,0l0,-203l-182,0M406,1838l183,0l0,-203l-183,0z"
   id="glyph826" />
<glyph
   unicode="ǚ"
   horiz-adv-x="1168"
   d="M103,130l0,678l165,0l0,-671C268,31 287,-48 324,-101C361,-154 417,-181 491,-181C581,-181 652,-149 704,-86C755,-23 781,64 781,173l0,635l166,0l0,-1120l-166,0l0,172C741,-208 695,-258 642,-291C589,-324 527,-341 456,-341C341,-341 253,-301 193,-221C133,-141 103,-24 103,130M492,1560l-190,266l125,0l149,-178l150,178l125,0l-190,-266M661,1526l182,0l0,-203l-182,0M309,1526l183,0l0,-203l-183,0z"
   id="glyph828" />
<glyph
   unicode="Ǜ"
   horiz-adv-x="1349"
   d="M203,1499l183,0l0,-907C386,432 412,317 465,247C517,176 601,141 718,141C835,141 919,176 971,247C1023,317 1049,432 1049,592l0,907l183,0l0,-932C1232,372 1189,225 1102,126C1015,27 887,-23 718,-23C548,-23 420,27 333,126C246,225 203,372 203,567M579,2144l176,-264l-137,0l-207,264M758,1844l182,0l0,-203l-182,0M406,1844l183,0l0,-203l-183,0z"
   id="glyph830" />
<glyph
   unicode="ǜ"
   horiz-adv-x="1168"
   d="M98,130l0,678l165,0l0,-671C263,31 282,-48 319,-101C356,-154 412,-181 486,-181C576,-181 647,-149 699,-86C750,-23 776,64 776,173l0,635l166,0l0,-1120l-166,0l0,172C736,-208 690,-258 637,-291C584,-324 522,-341 451,-341C336,-341 248,-301 188,-221C128,-141 98,-24 98,130M477,1826l176,-264l-137,0l-207,264M656,1526l182,0l0,-203l-182,0M304,1526l183,0l0,-203l-183,0z"
   id="glyph832" />
<glyph
   unicode="ǝ"
   horiz-adv-x="1260"
   d="M102,512l0,90l761,0C856,729 821,825 760,892C699,958 613,991 503,991C440,991 378,982 319,965C259,948 199,922 140,887l0,174C200,1089 261,1110 324,1125C386,1140 449,1147 513,1147C674,1147 801,1095 895,991C989,887 1036,746 1036,569C1036,386 992,240 903,133C814,25 693,-29 542,-29C406,-29 299,20 220,117C141,214 102,345 102,512M267,458C268,357 294,277 344,217C393,157 459,127 540,127C633,127 707,156 762,214C817,272 849,354 858,459z"
   id="glyph834" />
<glyph
   unicode="Ǟ"
   horiz-adv-x="1260"
   d="M630,1294l-247,-743l495,0M527,1493l207,0l512,-1493l-189,0l-123,383l-606,0l-122,-383l-192,0M362,2099l538,0l0,-148l-538,0M715,1838l182,0l0,-203l-182,0M363,1838l183,0l0,-203l-183,0z"
   id="glyph836" />
<glyph
   unicode="ǟ"
   horiz-adv-x="1129"
   d="M632,563C498,563 405,546 354,512C302,478 276,420 276,338C276,273 295,221 334,183C373,144 425,125 492,125C584,125 658,161 713,234C768,306 796,402 796,522l0,41M962,639l0,-639l-166,0l0,170C759,102 712,52 656,20C599,-13 530,-29 448,-29C345,-29 263,3 202,68C141,132 111,218 111,326C111,452 149,547 225,611C300,675 413,707 564,707l232,0l0,18C796,810 771,875 721,922C671,968 601,991 510,991C453,991 397,983 342,968C287,953 235,930 184,899l0,170C245,1095 304,1115 361,1128C418,1141 473,1147 527,1147C673,1147 782,1105 854,1021C926,937 962,810 962,639M619,1552l183,0l0,-202l-183,0M268,1552l182,0l0,-202l-182,0M266,1841l538,0l0,-148l-538,0z"
   id="glyph838" />
<glyph
   unicode="Ǡ"
   horiz-adv-x="1260"
   d="M630,1294l-247,-743l495,0M527,1493l207,0l512,-1493l-189,0l-123,383l-606,0l-122,-383l-192,0M538,1835l184,0l0,-205l-184,0M362,2099l538,0l0,-148l-538,0z"
   id="glyph840" />
<glyph
   unicode="ǡ"
   horiz-adv-x="1129"
   d="M534,244C400,244 307,227 256,193C204,159 178,101 178,19C178,-46 197,-98 236,-136C275,-175 327,-194 394,-194C486,-194 560,-158 615,-85C670,-13 698,83 698,203l0,41M864,320l0,-639l-166,0l0,170C661,-217 614,-267 558,-299C501,-332 432,-348 350,-348C247,-348 165,-316 104,-251C43,-187 13,-101 13,7C13,133 51,228 127,292C202,356 315,388 466,388l232,0l0,18C698,491 673,556 623,603C573,649 503,672 412,672C355,672 299,664 244,649C189,634 137,611 86,580l0,170C147,776 206,796 263,809C320,822 375,828 429,828C575,828 684,786 756,702C828,618 864,491 864,320M440,1516l184,0l0,-205l-184,0M264,1780l538,0l0,-148l-538,0z"
   id="glyph842" />
<glyph
   unicode="Ǣ"
   horiz-adv-x="1795"
   d="M846,1844l538,0l0,-148l-538,0M1660,1493l0,-170l-666,0l0,-442l640,0l0,-170l-640,0l0,-541l684,0l0,-170l-867,0l0,383l-475,0l-144,-383l-185,0l563,1493M695,1335l-297,-784l413,0l0,784z"
   id="glyph844" />
<glyph
   unicode="ǣ"
   horiz-adv-x="1809"
   d="M631,1522l538,0l0,-148l-538,0M1546,660C1545,761 1520,841 1471,901C1422,961 1356,991 1274,991C1182,991 1108,962 1053,904C997,846 965,764 957,659M896,963C940,1023 994,1069 1058,1100C1121,1131 1193,1147 1272,1147C1407,1147 1515,1099 1594,1002C1673,905 1713,773 1713,606l0,-90l-762,0C958,389 993,292 1054,225C1115,158 1201,125 1310,125C1373,125 1434,134 1494,152C1554,169 1614,196 1674,231l0,-174C1614,29 1553,8 1491,-7C1428,-22 1365,-29 1301,-29C1201,-29 1114,-9 1040,32C965,72 905,132 859,211C815,131 761,71 696,31C631,-9 555,-29 470,-29C357,-29 269,2 206,65C143,127 111,214 111,326C111,452 149,547 225,611C300,675 413,707 564,707l232,0l0,18C796,810 771,875 721,922C671,968 601,991 510,991C453,991 397,983 342,968C287,953 235,930 184,899l0,170C245,1095 304,1115 361,1128C418,1141 473,1147 527,1147C612,1147 687,1131 751,1099C815,1067 863,1022 896,963M632,563C498,563 405,546 354,512C302,478 276,420 276,338C276,273 295,221 334,183C373,144 425,125 492,125C584,125 658,161 713,234C768,306 796,402 796,522l0,41z"
   id="glyph846" />
<glyph
   unicode="Ǥ"
   horiz-adv-x="1428"
   d="M1277,780l0,-298l109,0l0,-88l-109,0l0,-255C1207,84 1130,42 1045,14C960,-15 870,-29 774,-29C564,-29 400,39 282,176C163,312 104,502 104,745C104,989 163,1179 282,1316C400,1452 564,1520 774,1520C861,1520 945,1508 1024,1484C1103,1460 1175,1425 1242,1378l0,-215C1175,1226 1103,1274 1028,1306C952,1338 872,1354 789,1354C625,1354 502,1303 419,1201C336,1099 295,947 295,745C295,544 336,392 419,290C502,188 625,137 789,137C854,137 911,143 962,156C1012,168 1057,187 1097,213l0,181l-228,0l0,88l228,0l0,132l-297,0l0,166z"
   id="glyph848" />
<glyph
   unicode="ǥ"
   horiz-adv-x="1170"
   d="M837,573C837,706 812,810 763,883C713,956 643,993 554,993C465,993 396,956 347,883C298,810 273,706 273,573C273,440 298,337 347,264C396,191 465,154 554,154C643,154 713,191 763,264C812,337 837,440 837,573M1003,139C1003,66 997,0 986,-59l161,0l0,-70l-179,0C949,-191 923,-243 888,-286C812,-379 695,-426 538,-426C480,-426 425,-421 374,-411C322,-402 272,-387 223,-367l0,179C272,-217 320,-239 367,-253C414,-267 463,-274 512,-274C621,-274 702,-242 756,-179C769,-164 780,-147 790,-128l-572,0l0,69l599,0C830,-12 837,43 837,106l0,91C803,131 759,82 706,49C653,16 589,0 514,0C390,0 290,52 215,157C140,262 102,400 102,573C102,746 140,885 215,990C290,1095 390,1147 514,1147C589,1147 653,1131 706,1098C759,1065 803,1016 837,950l0,170l166,0z"
   id="glyph850" />
<glyph
   unicode="Ǧ"
   horiz-adv-x="1428"
   d="M1097,213l0,401l-297,0l0,166l477,0l0,-641C1207,84 1130,42 1045,14C960,-15 870,-29 774,-29C564,-29 400,39 282,176C163,312 104,502 104,745C104,989 163,1179 282,1316C400,1452 564,1520 774,1520C861,1520 945,1508 1024,1484C1103,1460 1175,1425 1242,1378l0,-215C1175,1226 1103,1274 1028,1306C952,1338 872,1354 789,1354C625,1354 502,1303 419,1201C336,1099 295,947 295,745C295,544 336,392 419,290C502,188 625,137 789,137C854,137 911,143 962,156C1012,168 1057,187 1097,213M674,1635l-190,266l125,0l149,-178l150,178l125,0l-190,-266z"
   id="glyph852" />
<glyph
   unicode="ǧ"
   horiz-adv-x="1170"
   d="M461,1259l-220,376l125,0l162,-245l162,245l125,0l-221,-376M837,573C837,706 812,810 763,883C713,956 643,993 554,993C465,993 396,956 347,883C298,810 273,706 273,573C273,440 298,337 347,264C396,191 465,154 554,154C643,154 713,191 763,264C812,337 837,440 837,573M1003,139C1003,-52 965,-193 889,-286C812,-379 695,-426 538,-426C480,-426 425,-421 374,-411C322,-402 272,-387 223,-367l0,179C272,-217 320,-239 367,-253C414,-267 463,-274 512,-274C621,-274 702,-242 756,-179C810,-116 837,-21 837,106l0,91C803,131 759,82 706,49C653,16 589,0 514,0C390,0 290,52 215,157C140,262 102,400 102,573C102,746 140,885 215,990C290,1095 390,1147 514,1147C589,1147 653,1131 706,1098C759,1065 803,1016 837,950l0,170l166,0z"
   id="glyph854" />
<glyph
   unicode="Ǩ"
   horiz-adv-x="1208"
   d="M522,1635l-190,266l125,0l149,-178l150,178l125,0l-190,-266M181,1493l182,0l0,-631l603,631l234,0l-667,-696l714,-797l-239,0l-645,719l0,-719l-182,0z"
   id="glyph856" />
<glyph
   unicode="ǩ"
   horiz-adv-x="1067"
   d="M167,1556l167,0l0,-919l494,483l212,0l-535,-524l557,-596l-216,0l-512,547l0,-547l-167,0M170,1635l-190,266l125,0l149,-178l150,178l125,0l-190,-266z"
   id="glyph858" />
<glyph
   unicode="Ǫ"
   horiz-adv-x="1450"
   d="M673,-16l107,0C753,-57 734,-92 721,-121C708,-150 701,-175 701,-196C701,-227 709,-250 726,-265C742,-280 766,-288 799,-288C818,-288 837,-285 856,-280C875,-275 893,-268 911,-258l0,-133C888,-398 867,-403 847,-406C826,-409 807,-411 789,-411C716,-411 662,-396 628,-367C593,-338 576,-293 576,-231C576,-199 584,-165 600,-130C615,-95 640,-57 673,-16M726,1356C594,1356 489,1301 412,1192C334,1083 295,934 295,745C295,557 334,408 412,299C489,190 594,135 726,135C858,135 963,190 1040,299C1117,408 1156,557 1156,745C1156,934 1117,1083 1040,1192C963,1301 858,1356 726,1356M726,1520C915,1520 1065,1450 1178,1310C1291,1169 1347,981 1347,745C1347,510 1291,322 1178,182C1065,41 915,-29 726,-29C537,-29 387,41 274,181C161,321 104,509 104,745C104,981 161,1169 274,1310C387,1450 537,1520 726,1520z"
   id="glyph860" />
<glyph
   unicode="ǫ"
   horiz-adv-x="1127"
   d="M511,-16l107,0C591,-57 572,-92 559,-121C546,-150 539,-175 539,-196C539,-227 547,-250 564,-265C580,-280 604,-288 637,-288C656,-288 675,-285 694,-280C713,-275 731,-268 749,-258l0,-133C726,-398 705,-403 685,-406C664,-409 645,-411 627,-411C554,-411 500,-396 466,-367C431,-338 414,-293 414,-231C414,-199 422,-165 438,-130C453,-95 478,-57 511,-16M564,991C475,991 405,953 354,876C302,799 276,693 276,559C276,425 302,320 353,243C404,166 475,127 564,127C653,127 723,166 774,243C825,320 851,426 851,559C851,692 825,797 774,875C723,952 653,991 564,991M564,1147C708,1147 821,1095 904,991C986,887 1027,743 1027,559C1027,376 986,232 904,128C821,23 708,-29 564,-29C419,-29 306,23 225,128C143,232 102,376 102,559C102,743 143,887 225,991C306,1095 419,1147 564,1147z"
   id="glyph862" />
<glyph
   unicode="Ǭ"
   horiz-adv-x="1450"
   d="M458,1841l538,0l0,-148l-538,0M673,-16l107,0C753,-57 734,-92 721,-121C708,-150 701,-175 701,-196C701,-227 709,-250 726,-265C742,-280 766,-288 799,-288C818,-288 837,-285 856,-280C875,-275 893,-268 911,-258l0,-133C888,-398 867,-403 847,-406C826,-409 807,-411 789,-411C716,-411 662,-396 628,-367C593,-338 576,-293 576,-231C576,-199 584,-165 600,-130C615,-95 640,-57 673,-16M726,1356C594,1356 489,1301 412,1192C334,1083 295,934 295,745C295,557 334,408 412,299C489,190 594,135 726,135C858,135 963,190 1040,299C1117,408 1156,557 1156,745C1156,934 1117,1083 1040,1192C963,1301 858,1356 726,1356M726,1520C915,1520 1065,1450 1178,1310C1291,1169 1347,981 1347,745C1347,510 1291,322 1178,182C1065,41 915,-29 726,-29C537,-29 387,41 274,181C161,321 104,509 104,745C104,981 161,1169 274,1310C387,1450 537,1520 726,1520z"
   id="glyph864" />
<glyph
   unicode="ǭ"
   horiz-adv-x="1127"
   d="M296,1525l538,0l0,-148l-538,0M511,-16l107,0C591,-57 572,-92 559,-121C546,-150 539,-175 539,-196C539,-227 547,-250 564,-265C580,-280 604,-288 637,-288C656,-288 675,-285 694,-280C713,-275 731,-268 749,-258l0,-133C726,-398 705,-403 685,-406C664,-409 645,-411 627,-411C554,-411 500,-396 466,-367C431,-338 414,-293 414,-231C414,-199 422,-165 438,-130C453,-95 478,-57 511,-16M564,991C475,991 405,953 354,876C302,799 276,693 276,559C276,425 302,320 353,243C404,166 475,127 564,127C653,127 723,166 774,243C825,320 851,426 851,559C851,692 825,797 774,875C723,952 653,991 564,991M564,1147C708,1147 821,1095 904,991C986,887 1027,743 1027,559C1027,376 986,232 904,128C821,23 708,-29 564,-29C419,-29 306,23 225,128C143,232 102,376 102,559C102,743 143,887 225,991C306,1095 419,1147 564,1147z"
   id="glyph866" />
<glyph
   unicode="Ǯ"
   horiz-adv-x="1227"
   d="M548,1635l-190,266l125,0l149,-178l150,178l125,0l-190,-266M612,107C727,107 815,132 874,182C934,232 964,305 964,400C964,489 936,558 881,607C825,656 748,681 649,681l-157,0l0,166l347,476l-695,0l0,170l922,0l0,-168l-370,-476C759,849 829,830 906,793C965,765 1020,715 1072,642C1121,573 1145,492 1145,400C1145,253 1099,139 1008,58C917,-23 787,-63 619,-63C548,-63 475,-57 400,-44C324,-32 246,-14 166,11l0,195C229,173 299,149 375,132C451,115 530,107 612,107z"
   id="glyph868" />
<glyph
   unicode="ǯ"
   horiz-adv-x="1064"
   d="M418,1262l-220,376l125,0l162,-245l162,245l125,0l-221,-376M515,476C578,476 648,457 725,420C784,392 840,342 891,269C940,200 964,119 964,27C964,-120 918,-234 827,-315C736,-396 606,-436 438,-436C382,-436 324,-430 265,-418C205,-405 143,-387 79,-362l0,195C130,-200 185,-224 245,-241C305,-258 368,-266 433,-266C547,-266 634,-241 693,-191C753,-141 783,-68 783,27C783,115 755,184 700,234C644,283 567,308 468,308l-157,0l0,166l387,499l-600,0l0,147l787,0l0,-168z"
   id="glyph870" />
<glyph
   unicode="ǰ"
   horiz-adv-x="512"
   d="M198,1262l-220,376l125,0l162,-245l162,245l125,0l-221,-376M175,1120l165,0l0,-1140C340,-163 316,-266 267,-330C218,-394 140,-426 31,-426l-63,0l0,156l44,0C75,-270 118,-254 141,-221C164,-189 175,-122 175,-20z"
   id="glyph872" />
<glyph
   unicode="Ǳ"
   horiz-adv-x="2620"
   d="M1415,1493l1055,0l0,-154l-849,-1169l870,0l0,-170l-1097,0l0,154l849,1169l-828,0M363,1327l0,-1161l219,0C767,166 903,213 990,306C1076,399 1119,547 1119,748C1119,948 1076,1095 990,1188C903,1281 767,1327 582,1327M181,1493l373,0C815,1493 1006,1433 1128,1313C1249,1192 1310,1004 1310,748C1310,491 1249,302 1127,181C1004,60 813,0 554,0l-373,0z"
   id="glyph874" />
<glyph
   unicode="ǲ"
   horiz-adv-x="2394"
   d="M1446,1120l786,0l0,-168l-622,-805l622,0l0,-147l-809,0l0,168l623,805l-600,0M363,1327l0,-1161l219,0C767,166 903,213 990,306C1076,399 1119,547 1119,748C1119,948 1076,1095 990,1188C903,1281 767,1327 582,1327M181,1493l373,0C815,1493 1006,1433 1128,1313C1249,1192 1310,1004 1310,748C1310,491 1249,302 1127,181C1004,60 813,0 554,0l-373,0z"
   id="glyph876" />
<glyph
   unicode="ǳ"
   horiz-adv-x="2127"
   d="M1187,1120l786,0l0,-168l-622,-805l622,0l0,-147l-809,0l0,168l623,805l-600,0M837,950l0,606l166,0l0,-1556l-166,0l0,168C802,101 759,52 706,20C653,-13 589,-29 514,-29C392,-29 293,25 217,133C140,241 102,383 102,559C102,735 140,877 217,985C293,1093 392,1147 514,1147C589,1147 653,1131 706,1099C759,1066 802,1017 837,950M273,559C273,424 298,318 348,241C398,164 467,125 554,125C642,125 711,164 762,241C812,318 837,424 837,559C837,694 812,801 762,878C711,955 642,993 554,993C467,993 398,955 348,878C298,801 273,694 273,559z"
   id="glyph878" />
<glyph
   unicode="Ǵ"
   horiz-adv-x="1428"
   d="M765,1900l166,0l-205,-264l-138,0M1097,213l0,401l-297,0l0,166l477,0l0,-641C1207,84 1130,42 1045,14C960,-15 870,-29 774,-29C564,-29 400,39 282,176C163,312 104,502 104,745C104,989 163,1179 282,1316C400,1452 564,1520 774,1520C861,1520 945,1508 1024,1484C1103,1460 1175,1425 1242,1378l0,-215C1175,1226 1103,1274 1028,1306C952,1338 872,1354 789,1354C625,1354 502,1303 419,1201C336,1099 295,947 295,745C295,544 336,392 419,290C502,188 625,137 789,137C854,137 911,143 962,156C1012,168 1057,187 1097,213z"
   id="glyph880" />
<glyph
   unicode="ǵ"
   horiz-adv-x="1170"
   d="M837,573C837,706 812,810 763,883C713,956 643,993 554,993C465,993 396,956 347,883C298,810 273,706 273,573C273,440 298,337 347,264C396,191 465,154 554,154C643,154 713,191 763,264C812,337 837,440 837,573M1003,139C1003,-52 965,-193 889,-286C812,-379 695,-426 538,-426C480,-426 425,-421 374,-411C322,-402 272,-387 223,-367l0,179C272,-217 320,-239 367,-253C414,-267 463,-274 512,-274C621,-274 702,-242 756,-179C810,-116 837,-21 837,106l0,91C803,131 759,82 706,49C653,16 589,0 514,0C390,0 290,52 215,157C140,262 102,400 102,573C102,746 140,885 215,990C290,1095 390,1147 514,1147C589,1147 653,1131 706,1098C759,1065 803,1016 837,950l0,170l166,0M610,1635l179,0l-293,-376l-138,0z"
   id="glyph882" />
<glyph
   unicode="Ƕ"
   horiz-adv-x="2051"
   d="M181,1493l182,0l0,-612l660,0l0,612l182,0l0,-1044C1205,343 1224,263 1261,210C1298,158 1362,132 1454,131C1543,131 1607,157 1646,210C1683,260 1702,340 1702,449l0,671l182,0l0,-678C1884,293 1854,176 1794,91C1736,11 1623,-29 1454,-29C1289,-29 1175,11 1113,91C1053,170 1023,287 1023,442l0,269l-660,0l0,-711l-182,0z"
   id="glyph884" />
<glyph
   unicode="Ƿ"
   horiz-adv-x="1257"
   d="M363,156l0,-582l-182,0l0,1919l182,0l0,-185C396,1356 457,1409 544,1467C596,1502 690,1520 825,1520C944,1520 1029,1480 1078,1400C1129,1319 1154,1223 1154,1114C1154,809 890,490 363,156M363,351C766,638 968,870 968,1049C968,1144 950,1216 914,1263C878,1310 821,1333 743,1333C601,1333 474,1247 363,1076z"
   id="glyph886" />
<glyph
   unicode="Ǹ"
   horiz-adv-x="1378"
   d="M667,1899l176,-264l-137,0l-207,264M181,1493l245,0l596,-1249l0,1249l176,0l0,-1493l-245,0l-596,1249l0,-1249l-176,0z"
   id="glyph888" />
<glyph
   unicode="ǹ"
   horiz-adv-x="1168"
   d="M1012,676l0,-676l-166,0l0,670C846,776 827,855 790,908C753,961 697,987 623,987C534,987 463,955 412,892C360,829 334,742 334,633l0,-633l-167,0l0,1120l167,0l0,-174C373,1013 420,1064 474,1097C527,1130 589,1147 660,1147C775,1147 863,1107 923,1028C982,948 1012,831 1012,676M582,1636l254,-374l-138,0l-293,374z"
   id="glyph890" />
<glyph
   unicode="Ǻ"
   horiz-adv-x="1260"
   d="M767,1626C767,1668 754,1704 727,1734C700,1763 668,1778 630,1778C591,1778 559,1764 533,1735C507,1706 494,1669 494,1626C494,1584 507,1548 534,1519C560,1490 592,1475 630,1475C668,1475 700,1490 727,1519C754,1548 767,1584 767,1626M630,1294l-245,-743l491,0M494,1397C457,1424 430,1457 411,1496C392,1534 383,1577 383,1626C383,1703 407,1768 455,1821C502,1874 561,1901 630,1901C699,1901 757,1874 806,1821C854,1767 878,1702 878,1626C878,1579 869,1536 850,1497C831,1458 803,1424 767,1397l479,-1397l-189,0l-123,383l-606,0l-122,-383l-192,0M1054,1907l166,0l-205,-264l-138,0z"
   id="glyph892" />
<glyph
   unicode="ǻ"
   horiz-adv-x="1129"
   d="M632,563C498,563 405,546 354,512C302,478 276,420 276,338C276,273 295,221 334,183C373,144 425,125 492,125C584,125 658,161 713,234C768,306 796,402 796,522l0,41M962,639l0,-639l-166,0l0,170C759,102 712,52 656,20C599,-13 530,-29 448,-29C345,-29 263,3 202,68C141,132 111,218 111,326C111,452 149,547 225,611C300,675 413,707 564,707l232,0l0,18C796,810 771,875 721,922C671,968 601,991 510,991C453,991 397,983 342,968C287,953 235,930 184,899l0,170C245,1095 304,1115 361,1128C418,1141 473,1147 527,1147C673,1147 782,1105 854,1021C926,937 962,810 962,639M672,1524C672,1566 659,1602 632,1631C605,1660 573,1675 535,1675C496,1675 463,1661 437,1632C411,1603 398,1567 398,1524C398,1481 411,1445 437,1416C463,1387 496,1372 535,1372C573,1372 605,1387 632,1416C659,1445 672,1481 672,1524M781,1524C781,1447 757,1382 710,1329C662,1276 604,1249 535,1249C466,1249 407,1276 360,1329C312,1382 288,1447 288,1524C288,1601 312,1666 360,1719C407,1772 466,1798 535,1798C604,1798 662,1772 710,1719C757,1666 781,1601 781,1524M953,1907l166,0l-205,-264l-138,0z"
   id="glyph894" />
<glyph
   unicode="Ǽ"
   horiz-adv-x="1795"
   d="M1054,1900l166,0l-205,-264l-138,0M1660,1493l0,-170l-666,0l0,-442l640,0l0,-170l-640,0l0,-541l684,0l0,-170l-867,0l0,383l-475,0l-144,-383l-185,0l563,1493M695,1335l-297,-784l413,0l0,784z"
   id="glyph896" />
<glyph
   unicode="ǽ"
   horiz-adv-x="1809"
   d="M1546,660C1545,761 1520,841 1471,901C1422,961 1356,991 1274,991C1182,991 1108,962 1053,904C997,846 965,764 957,659M896,963C940,1023 994,1069 1058,1100C1121,1131 1193,1147 1272,1147C1407,1147 1515,1099 1594,1002C1673,905 1713,773 1713,606l0,-90l-762,0C958,389 993,292 1054,225C1115,158 1201,125 1310,125C1373,125 1434,134 1494,152C1554,169 1614,196 1674,231l0,-174C1614,29 1553,8 1491,-7C1428,-22 1365,-29 1301,-29C1201,-29 1114,-9 1040,32C965,72 905,132 859,211C815,131 761,71 696,31C631,-9 555,-29 470,-29C357,-29 269,2 206,65C143,127 111,214 111,326C111,452 149,547 225,611C300,675 413,707 564,707l232,0l0,18C796,810 771,875 721,922C671,968 601,991 510,991C453,991 397,983 342,968C287,953 235,930 184,899l0,170C245,1095 304,1115 361,1128C418,1141 473,1147 527,1147C612,1147 687,1131 751,1099C815,1067 863,1022 896,963M632,563C498,563 405,546 354,512C302,478 276,420 276,338C276,273 295,221 334,183C373,144 425,125 492,125C584,125 658,161 713,234C768,306 796,402 796,522l0,41M907,1635l179,0l-293,-376l-138,0z"
   id="glyph898" />
<glyph
   unicode="Ǿ"
   horiz-adv-x="1450"
   d="M739,1900l166,0l-205,-264l-138,0M1085,1112l-645,-846C477,223 520,191 569,169C617,146 669,135 726,135C858,135 963,190 1040,299C1117,408 1156,557 1156,745C1156,820 1150,888 1138,949C1126,1010 1108,1065 1085,1112M1012,1225C975,1268 933,1300 885,1323C836,1345 783,1356 726,1356C594,1356 489,1301 412,1192C334,1083 295,934 295,745C295,670 301,602 313,539C324,476 342,422 365,377M245,219C198,287 163,365 140,453C116,541 104,638 104,745C104,981 161,1169 274,1310C387,1450 537,1520 726,1520C804,1520 876,1507 943,1482C1009,1456 1068,1418 1120,1368l146,191l92,-89l-153,-198C1252,1203 1287,1125 1311,1036C1335,947 1347,850 1347,745C1347,510 1291,322 1178,182C1065,41 915,-29 726,-29C649,-29 578,-16 512,9C445,34 385,71 330,121l-146,-191l-92,88z"
   id="glyph900" />
<glyph
   unicode="ǿ"
   horiz-adv-x="1127"
   d="M814,801l-438,-592C401,181 429,160 460,147C491,134 525,127 564,127C653,127 723,166 774,243C825,320 851,426 851,559C851,612 848,658 842,697C836,736 827,770 814,801M751,909C726,936 698,957 667,971C636,984 601,991 564,991C473,991 403,952 352,874C301,795 276,686 276,545C276,497 279,455 285,418C290,381 299,348 311,317M199,166C166,217 142,276 126,342C110,407 102,480 102,559C102,743 143,887 225,991C306,1095 419,1147 564,1147C620,1147 672,1139 720,1122C767,1105 811,1079 851,1044l125,168l86,-79l-131,-179C962,903 986,844 1003,778C1019,712 1027,639 1027,559C1027,376 986,232 904,128C821,23 708,-29 564,-29C507,-29 454,-20 406,-3C357,14 314,40 276,74l-125,-168l-86,78M611,1635l179,0l-293,-376l-138,0z"
   id="glyph902" />
<glyph
   unicode="Ȁ"
   horiz-adv-x="1260"
   d="M630,1294l-247,-743l495,0M527,1493l207,0l512,-1493l-189,0l-123,383l-606,0l-122,-383l-192,0M443,1904l177,-264l-138,0l-205,264M745,1904l176,-264l-138,0l-205,264z"
   id="glyph904" />
<glyph
   unicode="ȁ"
   horiz-adv-x="1129"
   d="M380,1636l185,-376l-122,0l-223,376M681,1636l171,-376l-123,0l-201,376M632,563C498,563 405,546 354,512C302,478 276,420 276,338C276,273 295,221 334,183C373,144 425,125 492,125C584,125 658,161 713,234C768,306 796,402 796,522l0,41M962,639l0,-639l-166,0l0,170C759,102 712,52 656,20C599,-13 530,-29 448,-29C345,-29 263,3 202,68C141,132 111,218 111,326C111,452 149,547 225,611C300,675 413,707 564,707l232,0l0,18C796,810 771,875 721,922C671,968 601,991 510,991C453,991 397,983 342,968C287,953 235,930 184,899l0,170C245,1095 304,1115 361,1128C418,1141 473,1147 527,1147C673,1147 782,1105 854,1021C926,937 962,810 962,639z"
   id="glyph906" />
<glyph
   unicode="Ȃ"
   horiz-adv-x="1260"
   d="M630,1294l-247,-743l495,0M527,1493l207,0l512,-1493l-189,0l-123,383l-606,0l-122,-383l-192,0M912,1604l-106,0C798,1640 779,1668 750,1687C720,1706 680,1715 630,1715C581,1715 542,1706 513,1688C484,1669 464,1641 455,1604l-106,0C354,1683 381,1744 429,1785C477,1826 544,1846 630,1846C717,1846 784,1826 832,1785C879,1744 906,1684 912,1604z"
   id="glyph908" />
<glyph
   unicode="ȃ"
   horiz-adv-x="1129"
   d="M826,1321l-106,0C713,1371 695,1409 666,1434C637,1459 596,1471 544,1471C493,1471 453,1459 424,1434C395,1409 376,1372 368,1321l-106,0C268,1416 295,1488 343,1536C390,1584 457,1608 544,1608C631,1608 698,1584 746,1536C793,1488 820,1416 826,1321M632,563C498,563 405,546 354,512C302,478 276,420 276,338C276,273 295,221 334,183C373,144 425,125 492,125C584,125 658,161 713,234C768,306 796,402 796,522l0,41M962,639l0,-639l-166,0l0,170C759,102 712,52 656,20C599,-13 530,-29 448,-29C345,-29 263,3 202,68C141,132 111,218 111,326C111,452 149,547 225,611C300,675 413,707 564,707l232,0l0,18C796,810 771,875 721,922C671,968 601,991 510,991C453,991 397,983 342,968C287,953 235,930 184,899l0,170C245,1095 304,1115 361,1128C418,1141 473,1147 527,1147C673,1147 782,1105 854,1021C926,937 962,810 962,639z"
   id="glyph910" />
<glyph
   unicode="Ȅ"
   horiz-adv-x="1164"
   d="M181,1493l849,0l0,-170l-667,0l0,-442l640,0l0,-170l-640,0l0,-541l684,0l0,-170l-866,0M385,1904l177,-264l-138,0l-205,264M687,1904l176,-264l-138,0l-205,264z"
   id="glyph912" />
<glyph
   unicode="ȅ"
   horiz-adv-x="1134"
   d="M411,1635l185,-376l-122,0l-223,376M712,1635l171,-376l-123,0l-201,376M1036,606l0,-90l-762,0C281,389 316,293 378,227C439,160 525,127 634,127C698,127 760,136 820,153C879,170 938,196 997,231l0,-174C938,29 877,8 815,-7C752,-22 689,-29 625,-29C464,-29 336,23 243,127C149,231 102,372 102,549C102,732 147,878 236,986C325,1093 445,1147 596,1147C731,1147 839,1099 918,1002C997,905 1036,773 1036,606M870,660C869,761 843,841 794,901C745,961 679,991 598,991C505,991 431,962 376,904C320,846 288,764 280,659z"
   id="glyph914" />
<glyph
   unicode="Ȇ"
   horiz-adv-x="1164"
   d="M181,1493l849,0l0,-170l-667,0l0,-442l640,0l0,-170l-640,0l0,-541l684,0l0,-170l-866,0M892,1604l-106,0C778,1640 759,1668 730,1687C700,1706 660,1715 610,1715C561,1715 522,1706 493,1688C464,1669 444,1641 435,1604l-106,0C334,1683 361,1744 409,1785C457,1826 524,1846 610,1846C697,1846 764,1826 812,1785C859,1744 886,1684 892,1604z"
   id="glyph916" />
<glyph
   unicode="ȇ"
   horiz-adv-x="1134"
   d="M888,1321l-106,0C775,1371 757,1409 728,1434C699,1459 658,1471 606,1471C555,1471 515,1459 486,1434C457,1409 438,1372 430,1321l-106,0C330,1416 357,1488 405,1536C452,1584 519,1608 606,1608C693,1608 760,1584 808,1536C855,1488 882,1416 888,1321M1036,606l0,-90l-762,0C281,389 316,293 378,227C439,160 525,127 634,127C698,127 760,136 820,153C879,170 938,196 997,231l0,-174C938,29 877,8 815,-7C752,-22 689,-29 625,-29C464,-29 336,23 243,127C149,231 102,372 102,549C102,732 147,878 236,986C325,1093 445,1147 596,1147C731,1147 839,1099 918,1002C997,905 1036,773 1036,606M870,660C869,761 843,841 794,901C745,961 679,991 598,991C505,991 431,962 376,904C320,846 288,764 280,659z"
   id="glyph918" />
<glyph
   unicode="Ȉ"
   horiz-adv-x="543"
   d="M181,1493l182,0l0,-1493l-182,0M86,1904l177,-264l-138,0l-205,264M388,1904l176,-264l-138,0l-205,264z"
   id="glyph920" />
<glyph
   unicode="ȉ"
   horiz-adv-x="512"
   d="M105,1635l185,-376l-122,0l-223,376M406,1635l171,-376l-123,0l-201,376M174,1120l165,0l0,-1120l-165,0z"
   id="glyph922" />
<glyph
   unicode="Ȋ"
   horiz-adv-x="543"
   d="M181,1493l182,0l0,-1493l-182,0M568,1604l-106,0C454,1640 435,1668 406,1687C376,1706 336,1715 286,1715C237,1715 198,1706 169,1688C140,1669 120,1641 111,1604l-106,0C10,1683 37,1744 85,1785C133,1826 200,1846 286,1846C373,1846 440,1826 488,1785C535,1744 562,1684 568,1604z"
   id="glyph924" />
<glyph
   unicode="ȋ"
   horiz-adv-x="512"
   d="M538,1321l-106,0C425,1371 407,1409 378,1434C349,1459 308,1471 256,1471C205,1471 165,1459 136,1434C107,1409 88,1372 80,1321l-106,0C-20,1416 7,1488 55,1536C102,1584 169,1608 256,1608C343,1608 410,1584 458,1536C505,1488 532,1416 538,1321M174,1120l165,0l0,-1120l-165,0z"
   id="glyph926" />
<glyph
   unicode="Ȍ"
   horiz-adv-x="1450"
   d="M726,1356C594,1356 489,1301 412,1192C334,1083 295,934 295,745C295,557 334,408 412,299C489,190 594,135 726,135C858,135 963,190 1040,299C1117,408 1156,557 1156,745C1156,934 1117,1083 1040,1192C963,1301 858,1356 726,1356M726,1520C915,1520 1065,1450 1178,1310C1291,1169 1347,981 1347,745C1347,510 1291,322 1178,182C1065,41 915,-29 726,-29C537,-29 387,41 274,181C161,321 104,509 104,745C104,981 161,1169 274,1310C387,1450 537,1520 726,1520M525,1904l177,-264l-138,0l-205,264M827,1904l176,-264l-138,0l-205,264z"
   id="glyph928" />
<glyph
   unicode="ȍ"
   horiz-adv-x="1127"
   d="M387,1636l185,-376l-122,0l-223,376M688,1636l171,-376l-123,0l-201,376M564,991C475,991 405,953 354,876C302,799 276,693 276,559C276,425 302,320 353,243C404,166 475,127 564,127C653,127 723,166 774,243C825,320 851,426 851,559C851,692 825,797 774,875C723,952 653,991 564,991M564,1147C708,1147 821,1095 904,991C986,887 1027,743 1027,559C1027,376 986,232 904,128C821,23 708,-29 564,-29C419,-29 306,23 225,128C143,232 102,376 102,559C102,743 143,887 225,991C306,1095 419,1147 564,1147z"
   id="glyph930" />
<glyph
   unicode="Ȏ"
   horiz-adv-x="1450"
   d="M726,1356C594,1356 489,1301 412,1192C334,1083 295,934 295,745C295,557 334,408 412,299C489,190 594,135 726,135C858,135 963,190 1040,299C1117,408 1156,557 1156,745C1156,934 1117,1083 1040,1192C963,1301 858,1356 726,1356M726,1520C915,1520 1065,1450 1178,1310C1291,1169 1347,981 1347,745C1347,510 1291,322 1178,182C1065,41 915,-29 726,-29C537,-29 387,41 274,181C161,321 104,509 104,745C104,981 161,1169 274,1310C387,1450 537,1520 726,1520M998,1604l-106,0C884,1640 865,1668 836,1687C806,1706 766,1715 716,1715C667,1715 628,1706 599,1688C570,1669 550,1641 541,1604l-106,0C440,1683 467,1744 515,1785C563,1826 630,1846 716,1846C803,1846 870,1826 918,1785C965,1744 992,1684 998,1604z"
   id="glyph932" />
<glyph
   unicode="ȏ"
   horiz-adv-x="1127"
   d="M872,1321l-106,0C759,1371 741,1409 712,1434C683,1459 642,1471 590,1471C539,1471 499,1459 470,1434C441,1409 422,1372 414,1321l-106,0C314,1416 341,1488 389,1536C436,1584 503,1608 590,1608C677,1608 744,1584 792,1536C839,1488 866,1416 872,1321M564,991C475,991 405,953 354,876C302,799 276,693 276,559C276,425 302,320 353,243C404,166 475,127 564,127C653,127 723,166 774,243C825,320 851,426 851,559C851,692 825,797 774,875C723,952 653,991 564,991M564,1147C708,1147 821,1095 904,991C986,887 1027,743 1027,559C1027,376 986,232 904,128C821,23 708,-29 564,-29C419,-29 306,23 225,128C143,232 102,376 102,559C102,743 143,887 225,991C306,1095 419,1147 564,1147z"
   id="glyph934" />
</font>
</defs>
</svg>
